<?xml version="1.0" standalone="no"?>
<!DOCTYPE svg PUBLIC "-//W3C//DTD SVG 1.1//EN" "http://www.w3.org/Graphics/SVG/1.1/DTD/svg11.dtd" >
<svg xmlns="http://www.w3.org/2000/svg">
<metadata>Generated by IcoMoon</metadata>
<defs>
<font id="relway" horiz-adv-x="512">
<font-face units-per-em="512" ascent="480" descent="-32" />
<missing-glyph horiz-adv-x="512" />
<glyph unicode="&#x20;" d="" horiz-adv-x="256" />
<glyph unicode="&#xe600;" d="M467.088 395.76c-58.064 57.536-150.912 58.736-211.056 4.608-60.16 54.128-152.976 52.928-211.072-4.608-59.856-59.264-59.856-155.344 0-214.64 17.104-16.944 176.848-175.056 176.848-175.056 18.928-18.752 49.536-18.752 68.448 0 0 0 174.912 173.152 176.848 175.056 59.872 59.296 59.872 155.376-0.016 214.64zM444.288 203.712l-176.848-175.056c-6.288-6.256-16.544-6.256-22.8 0l-176.848 175.056c-47.2 46.72-47.2 122.736 0 169.456 45.504 45.040 118.656 46.624 166.544 3.552l21.696-19.52 21.68 19.52c47.904 43.072 121.056 41.504 166.56-3.552 47.2-46.704 47.2-122.72 0.016-169.456zM148.048 359.984c4.432 0 8-3.584 8-8s-3.584-8-8-8h-0.016c-28.704 0-51.984-23.28-51.984-51.984v-0.016c0-4.416-3.584-8-8-8s-8 3.584-8 8v0c0 37.536 30.416 67.952 67.936 67.984 0.032 0 0.032 0.016 0.064 0.016z" />
<glyph unicode="&#xe601;" d="M414.624 269.712c-6.992 73.008-67.776 130.288-142.624 130.288-57.904 0-107.472-34.368-130.336-83.68-6.88 2.176-14.048 3.68-21.648 3.68-39.76 0-72-32.256-72-72 0-7.904 1.584-15.376 3.936-22.464-30.928-18.032-51.936-51.12-51.936-89.504 0-57.44 46.56-104 104-104v-0.032l287.984 0.032c66.288 0 120 53.712 120 120 0 58.496-41.936 107.088-97.376 117.68zM392 64.032v-0.032h-287.984c-39.696 0.032-72 32.32-72 72.032 0 25.6 13.488 48.72 36.064 61.872 21.936 12.592 23.44 15.088 14.24 37.712-1.552 4.656-2.304 8.704-2.304 12.368 0 22.064 17.936 40 40 40 0 0 10.496 0.752 21.648-3.68 18.352-7.312 20.352-0.32 29.024 18.544 18.352 39.568 58.112 65.152 101.312 65.152 57.6 0 105.216-43.568 110.784-101.344 1.968-22.912 1.968-22.912 25.84-28.368 41.376-7.904 71.376-44.192 71.376-86.256 0-48.528-39.472-88-88-88z" />
<glyph unicode="&#xe602;" d="M510.096 279.088c-4.432 12.784-15.808 22.144-29.504 24.176l-133.216 19.808-57.904 120.224c-6.096 12.624-19.136 20.704-33.472 20.704s-27.376-8.080-33.472-20.704l-57.904-120.224-133.232-19.808c-13.68-2.032-25.056-11.392-29.472-24.176-4.4-12.816-1.072-26.928 8.592-36.56l97.632-97.472-22.64-135.216c-2.304-13.616 3.6-27.28 15.168-35.248 6.352-4.368 13.824-6.592 21.296-6.592 6.144 0 12.304 1.504 17.888 4.496l116.144 62.528 116.16-62.528c5.584-2.992 11.744-4.496 17.872-4.496 7.472 0 14.944 2.224 21.312 6.592 11.568 7.968 17.44 21.632 15.152 35.248l-22.656 135.216 97.664 97.472c9.648 9.648 12.96 23.76 8.592 36.56zM377.408 170.192c-8.192-8.16-11.904-19.664-10.032-30.944l22.656-135.216-116.16 62.496c-5.568 3.008-11.712 4.496-17.888 4.496-6.144 0-12.304-1.504-17.872-4.496l-116.16-62.496 22.656 135.216c1.888 11.28-1.824 22.784-10.016 30.944l-97.632 97.472 133.216 19.84c12.176 1.808 22.656 9.424 27.888 20.288l57.936 120.192 57.92-120.208c5.248-10.864 15.712-18.464 27.872-20.288l133.248-19.84-97.632-97.456z" />
<glyph unicode="&#xe603;" d="M354.72 342.016c-43.312 8.912-87.28 13.424-130.64 13.424s-87.312-4.512-130.64-13.424c-5.6-1.152-10.176-5.216-11.984-10.672-23.072-70.096-23.072-141.168 0-211.264 1.792-5.44 6.368-9.504 11.984-10.656 43.328-8.896 87.28-13.424 130.64-13.424 43.344 0 87.328 4.528 130.64 13.44 5.632 1.152 10.192 5.216 12 10.656 23.056 70.096 23.056 141.168 0 211.264-1.808 5.44-6.384 9.504-12 10.656zM351.504 125.088c-84.944-17.44-169.904-17.44-254.832 0-22.096 67.088-22.096 134.16 0 201.264 84.944 17.456 169.904 17.456 254.832 0 22.096-67.088 22.096-134.16 0-201.264zM493.664 378.88c-3.088 13.024-14 22.752-27.28 24.352-69.76 8.48-140.512 12.768-210.304 12.768-69.776 0-140.528-4.288-210.288-12.752-13.28-1.616-24.176-11.328-27.264-24.368-24.464-102.768-24.464-206.976 0-309.76 3.088-13.024 13.984-22.752 27.264-24.336 33.616-4.096 67.456-7.088 101.296-9.216-1.824-1.168-3.008-2.352-3.008-3.568 0-8.848 50.144-16 112-16 61.856 0 112 7.152 112 16 0 1.216-1.184 2.4-3.008 3.568 33.84 2.128 67.68 5.12 101.28 9.216 13.28 1.6 24.192 11.312 27.28 24.336 24.496 102.784 24.496 206.992 0.032 309.76zM462.528 76.528c-137.632-16.688-275.264-16.688-412.88 0-23.408 98.32-23.408 196.64 0 294.944 137.632 16.704 275.264 16.704 412.88 0 23.408-98.304 23.408-196.624 0-294.944zM424.096 288c13.248 0 24 10.752 24 24s-10.752 24-24 24-24-10.752-24-24 10.752-24 24-24zM424.096 320c4.4 0 8-3.6 8-8s-3.6-8-8-8-8 3.6-8 8 3.584 8 8 8zM440.096 128c4.4 0 8-3.568 8-8 0-4.4-3.6-8-8-8h-48c-4.432 0-8 3.6-8 8 0 4.432 3.568 8 8 8h48zM456.096 176c4.4 0 8-3.568 8-8 0-4.4-3.6-8-8-8h-48c-4.432 0-8 3.6-8 8 0 4.432 3.568 8 8 8h48zM456.096 224c4.4 0 8-3.584 8-8s-3.6-8-8-8h-48c-4.432 0-8 3.584-8 8s3.568 8 8 8h48zM216.080 291.136c4.416 0.176 8-3.264 8-7.68s-3.6-8.128-8-8.288l-59.984-4.112c-4.368-0.448-8.432-4.384-9.024-8.736l-2.672-30.32c-0.176-4.4-3.92-8-8.288-8-4.384 0-7.792 3.6-7.568 8l4.88 44.576c0.736 4.352 4.912 8.32 9.28 8.816l73.376 5.744z" />
<glyph unicode="&#xe604;" d="M431.968 255.952c0 79.392-64.592 144-144 143.984v0.064c-4.4 0.016-7.968 3.6-7.968 8 0 4.416 3.568 8 8 8 0.16 0 0.288-0.064 0.4-0.096 88.128-0.208 159.472-71.632 159.568-159.776 0-0.048 0.032-0.080 0.032-0.128 0-4.416-3.6-7.984-8-7.984-4.4 0-7.968 3.552-8 7.936h-0.032zM145.936 465.952c-9.168 9.184-21.456 14.048-33.952 14.048-6.176 0-12.4-1.184-18.336-3.648-17.952-7.424-29.648-24.928-29.648-44.352l-0.016-220.112-49.92-49.952c-18.752-18.72-18.752-49.12 0-67.872l112-112c9.376-9.376 21.648-14.064 33.936-14.064s24.56 4.688 33.936 14.064l49.936 49.936h220.096c19.44 0 36.944 11.68 44.336 29.632 7.44 17.936 3.344 38.592-10.4 52.32l-351.968 352zM221.248 54.624l-49.936-49.936c-4.080-4.064-8.848-4.688-11.312-4.688s-7.232 0.624-11.312 4.688l-112 112c-4.080 4.096-4.688 8.848-4.688 11.312s0.608 7.248 4.688 11.312l49.92 49.936c0.144 0.16 0.192 0.336 0.336 0.496l134.8-134.816c-0.144-0.112-0.352-0.144-0.496-0.304zM243.872 64c-2.48 0-4.784-0.88-7.152-1.408l-142.16 142.16c0.544 2.368 1.424 4.672 1.424 7.136l0.016 192.736 340.592-340.624h-192.72zM478.752 73.872c-2.464-6-8.288-9.872-14.784-9.872h-4.752l-363.216 363.248v4.752c0 6.496 3.872 12.304 9.872 14.784 1.968 0.816 4.016 1.216 6.112 1.216 4.288 0 8.304-1.664 11.312-4.672l351.984-352.016c4.592-4.592 5.968-11.44 3.472-17.44zM287.968 448c-8.816 0.016-15.968 7.184-15.968 16 0 8.848 7.152 16 16 16 0.16 0 0.288-0.064 0.4-0.080 123.472-0.224 223.472-100.304 223.568-223.792 0-0.048 0.032-0.080 0.032-0.128 0-8.848-7.152-16-16-16-8.816 0-15.968 7.136-16 15.936h-0.032c0 105.872-86.128 192-192 192v0.064z" />
<glyph unicode="&#xe605;" d="M480 384h-14.192c-8.4 0-16.464-3.312-22.464-9.216l-43.344-42.752v19.968c0 26.512-21.504 48-48 48h-304c-26.464 0-48-21.52-48-48v-256c0-26.496 21.488-48 48-48h304c26.496 0 48 21.504 48 48v19.536l43.344-42.752c6-5.904 14.064-9.216 22.464-9.216h14.192c17.664 0 32 14.32 32 32v256.432c0 17.68-14.336 32-32 32zM48 80c-8.832 0-16 7.184-16 16v256c0 8.848 7.152 16 16 16h304c8.816 0 16-7.168 16-16v-256c0-8.816-7.184-16-16-16h-304zM480 95.568h-16l-64 64v0.432l-16 16v96l80 80h16v-256.432z" />
<glyph unicode="&#xe606;" d="M479.68 370.896c-1.536 25.12-22.192 45.056-47.68 45.056h-48v16.032c0 26.512-21.504 48-48 48h-160c-26.512 0-48-21.488-48-48v-16.016h-48c-25.52 0-46.16-19.936-47.696-45.056h-0.304v-34.928c0-17.664 14.336-32 32-32v0-272c0-35.344 28.656-64 64-64h256c35.344 0 64 28.656 64 64v272c17.664 0 32 14.336 32 32v34.912h-0.32zM160 431.968c0 8.848 7.152 16 16 16h160c8.848 0 16-7.152 16-16v-16h-192v16zM416 31.968c0-17.632-14.368-32-32-32h-256c-17.648 0-32 14.368-32 32v272h320v-272zM448 351.984v-16h-384v31.984c0 8.848 7.152 16 16 16h352c8.848 0 16-7.152 16-16v-15.984zM144 31.904h32c8.848 0 16 7.152 16 16v208c0 8.848-7.152 16-16 16h-32c-8.848 0-16-7.152-16-16v-208c0-8.848 7.152-16 16-16zM144 255.92h32v-208h-32v208zM240 31.904h32c8.848 0 16 7.152 16 16v208c0 8.848-7.152 16-16 16h-32c-8.848 0-16-7.152-16-16v-208c0-8.848 7.152-16 16-16zM240 255.92h32v-208h-32v208zM336 31.904h32c8.848 0 16 7.152 16 16v208c0 8.848-7.152 16-16 16h-32c-8.848 0-16-7.152-16-16v-208c0-8.848 7.152-16 16-16zM336 255.92h32v-208h-32v208z" />
<glyph unicode="&#xe607;" d="M497.76 26.624c-3.216 2.128-61.568 40.4-148.368 59.184 31.84 40.336 52.288 94.592 60.976 130.704 12.064 50.048 7.376 147.968-40.688 208.992-28.096 35.664-67.408 54.496-113.68 54.496-46.272 0-85.584-18.848-113.664-54.496-48.064-61.008-52.736-158.928-40.688-208.976 8.688-36.112 29.12-90.368 60.976-130.704-86.8-18.784-145.152-57.056-148.352-59.184-11.728-7.808-16.976-22.4-12.88-35.872 4.064-13.52 16.528-22.768 30.608-22.768h448c14.096 0 26.528 9.248 30.624 22.752 4.112 13.472-1.136 28.064-12.864 35.872zM324.272 105.632l-5.216-6.624c-38.16-43.84-87.92-43.84-126.064 0l-5.232 6.624c-44.56 56.464-66.672 131.152-57.152 202.4 8.72 68.464 47.952 139.968 125.392 139.968 77.44 0 116.688-71.52 125.408-139.984 9.488-71.28-12.544-145.888-57.136-202.384zM32 0c2.208 1.472 56.416 37.024 137.376 54.528l39.744 8.592c14.192-9.312 29.76-15.12 46.88-15.12 17.136 0 32.688 5.808 46.88 15.12l39.744-8.592c80.32-17.376 134.336-52.528 137.376-54.528h-448z" />
<glyph unicode="&#xe608;" d="M352.064 480c-88.368 0-160-71.648-160-160 0-20.56 4.304-40.016 11.408-58.064l-194.384-194.368c-5.616-5.632-9.088-10.976-9.088-19.568v-48c0-17.12 14.864-32 32-32h48c8.576 0 14 3.44 19.616 9.024l22.96 22.976h37.488c17.664 0 32 14.336 32 32v32h32c17.664 0 32 14.336 32 32v37.504l37.904 37.936c18.064-7.12 37.504-11.44 58.096-11.44 88.336 0 160 71.648 160 160s-71.664 160-160 160zM352.064 192c-23.68 0-45.632 6.88-64.656 18.112l-5.504-5.488-48.48-48.496c-6-6-9.376-14.128-9.376-22.624v-37.504h-32c-17.664 0-32-14.32-32-32v-32h-37.472c-8.48 0-16.624-3.376-22.624-9.376l-22.688-22.688-45.216 0.064-0.048 45.6 186.64 186.304c0 0 0-0.016 0.016-0.032l23.504 23.504c-11.232 19.024-18.112 40.96-18.112 64.64 0 70.688 57.328 128 128 128s128-57.312 128-128-57.296-128.016-127.984-128.016zM445.12 348.176c-17.936 24.992-39.776 46.8-64.88 64.864-4.080 2.96-9.36 3.696-14.112 2.032-22.224-7.824-37.44-23.024-45.216-45.248-0.592-1.664-0.88-3.392-0.88-5.104 0-3.184 0.992-6.336 2.912-9.008 18-25.024 39.808-46.848 64.848-64.848 4.096-2.944 9.344-3.696 14.096-2.048 22.256 7.776 37.472 23.008 45.28 45.248 0.592 1.664 0.88 3.392 0.88 5.104-0.016 3.184-1.024 6.336-2.928 9.008zM397.12 303.84c-23.648 17.008-44.24 37.6-61.12 60.688 6.192 17.648 17.776 29.232 34.912 35.536 23.664-17.040 44.224-37.584 61.056-60.976-6.256-17.52-17.808-29.040-34.848-35.248z" />
<glyph unicode="&#xe609;" d="M320 479.92c-106.032 0-192-85.968-192-192 0-32.416 8.112-62.928 22.32-89.728l-133.504-133.472 0.112-0.096c-10.432-10.256-16.928-24.464-16.928-40.256 0-31.184 25.28-56.464 56.464-56.464 15.76 0 29.984 6.496 40.24 16.944l-0.032 0.032 133.456 133.44c26.816-14.256 57.376-22.4 89.872-22.4 106.032 0 192 85.968 192 192 0 106.032-85.968 192-192 192zM76.72 4.848c-5.152-5.344-12.288-8.688-20.256-8.688-15.6 0-28.24 12.624-28.24 28.224 0 7.968 3.36 15.088 8.688 20.256l-0.144 0.128 129.056 129.056c11.28-15.216 24.72-28.656 39.904-39.968l-129.008-129.008zM320 127.904c-88.352 0-160 71.664-160 160 0 88.352 71.648 160 160 160 88.336 0 160-71.648 160-160 0-88.336-71.664-160-160-160zM320 399.92c4.4 0 8-3.584 8-8s-3.6-8-8-8c-53.024 0-96-42.992-96-96 0-4.416-3.584-8-8-8-4.416 0-8 3.584-8 8 0 61.856 50.128 112 112 112z" />
<glyph unicode="&#xe60a;" d="M486.256 277.12l-49.024 9.824c-2.464 7.088-5.376 13.968-8.592 20.624l27.776 41.664c8.464 12.688 6.784 29.6-4 40.368l-30.784 30.784c-6.192 6.192-14.368 9.376-22.656 9.376-6.128 0-12.32-1.76-17.712-5.376l-41.664-27.76c-6.688 3.232-13.568 6.112-20.656 8.576l-9.824 49.040c-2.976 14.976-16.128 25.728-31.376 25.728h-43.52c-15.248 0-28.384-10.768-31.376-25.728l-9.824-49.040c-7.088-2.464-13.968-5.36-20.624-8.576l-41.648 27.76c-5.424 3.616-11.6 5.376-17.744 5.376-8.272 0-16.448-3.184-22.64-9.376l-30.768-30.784c-10.784-10.784-12.464-27.68-4-40.368l27.76-41.664c-3.232-6.672-6.112-13.552-8.576-20.64l-49.056-9.808c-14.96-2.992-25.728-16.128-25.728-31.376v-43.52c0-15.248 10.768-28.4 25.728-31.376l49.040-9.84c2.464-7.088 5.36-13.968 8.576-20.624l-27.744-41.664c-8.464-12.688-6.784-29.6 4-40.368l30.784-30.784c6.192-6.192 14.368-9.376 22.64-9.376 6.144 0 12.336 1.776 17.728 5.376l41.664 27.776c6.672-3.248 13.552-6.128 20.64-8.592l9.808-49.024c2.992-14.976 16.128-25.744 31.376-25.744h43.52c15.248 0 28.4 10.784 31.376 25.744l9.84 49.024c7.088 2.464 13.968 5.376 20.624 8.592l41.664-27.776c5.408-3.6 11.6-5.376 17.712-5.376 8.288 0 16.464 3.184 22.656 9.376l30.784 30.784c10.784 10.784 12.464 27.68 4 40.368l-27.776 41.664c3.248 6.688 6.128 13.568 8.592 20.656l49.024 9.808c14.96 2.96 25.744 16.128 25.744 31.376v43.52c0 15.248-10.784 28.384-25.744 31.376zM430.944 192.4c-11.12-2.224-20.224-10.16-23.936-20.88-2.064-5.904-4.464-11.632-7.152-17.184-4.976-10.224-4.128-22.288 2.16-31.712l27.776-41.664-30.784-30.784-41.664 27.776c-5.344 3.568-11.536 5.376-17.744 5.376-4.752 0-9.536-1.056-13.936-3.184-5.568-2.688-11.28-5.12-17.216-7.184-10.688-3.712-18.624-12.816-20.848-23.936l-9.84-49.056h-43.52l-9.808 49.056c-2.224 11.12-10.16 20.224-20.864 23.936-5.904 2.064-11.648 4.464-17.2 7.152-4.416 2.16-9.184 3.216-13.952 3.216-6.224 0-12.4-1.808-17.744-5.376l-41.664-27.776-30.784 30.784 27.76 41.664c6.288 9.44 7.104 21.504 2.192 31.68-2.688 5.568-5.104 11.28-7.168 17.216-3.712 10.688-12.832 18.624-23.936 20.848l-49.040 9.84-0.032 43.536 49.056 9.808c11.104 2.224 20.224 10.16 23.936 20.864 2.064 5.904 4.448 11.648 7.152 17.2 4.96 10.208 4.128 22.272-2.176 31.696l-27.744 41.664 30.768 30.784 41.664-27.76c5.344-3.568 11.536-5.376 17.744-5.376 4.752 0 9.52 1.056 13.936 3.184 5.552 2.688 11.28 5.104 17.2 7.168 10.704 3.712 18.64 12.832 20.864 23.936l9.824 49.040 43.52 0.016 9.808-49.056c2.224-11.104 10.16-20.224 20.88-23.936 5.904-2.064 11.632-4.448 17.184-7.152 4.432-2.144 9.184-3.2 13.968-3.2 6.224 0 12.4 1.808 17.744 5.376l41.664 27.76 30.784-30.784-27.776-41.664c-6.288-9.44-7.088-21.488-2.192-31.68 2.688-5.552 5.12-11.28 7.184-17.2 3.712-10.704 12.816-18.64 23.936-20.864l49.024-9.824 0.048-43.52-49.056-9.824zM256 335.984c-61.84 0-112-50.16-112-112 0-61.856 50.16-112 112-112s112 50.16 112 112c0 61.84-50.16 112-112 112zM256 125.968c-54.112 0-98 43.904-98 98 0 54.112 43.888 98 98 98 54.096 0 98-43.888 98-98 0-54.096-43.904-98-98-98zM256 287.984c-35.36 0-64-28.64-64-64 0-35.344 28.64-64 64-64 35.344 0 64 28.656 64 64 0 35.344-28.656 64-64 64zM256 175.968c-26.496 0-48 21.504-48 48 0 26.496 21.504 48 48 48s48-21.504 48-48c0-26.496-21.504-48-48-48z" />
<glyph unicode="&#xe60b;" d="M256 319.984c-70.704 0-128-57.296-128-128 0-70.688 57.296-128 128-128 70.688 0 128 57.312 128 128 0 70.688-57.312 128-128 128zM328.88 129.504c-34.496-40.256-95.088-44.912-135.344-10.4-40.272 34.496-44.912 95.104-10.4 135.344 34.48 40.272 95.088 44.912 135.344 10.4 40.24-34.48 44.896-95.104 10.4-135.344zM256 255.984c4.416 0 8-3.584 8-8s-3.584-8-8-8c-26.512 0-47.984-21.488-48-47.984v-0.032c0-4.4-3.584-8-8-8s-8 3.6-8 8v0.032c0.016 35.328 28.656 63.984 64 63.984zM471.872 335.328l-69.344 11.568-21.968 54.944c-7.344 18.32-24.848 30.16-44.56 30.16h-160c-19.712 0-37.216-11.84-44.576-30.176l-21.952-54.928-69.328-11.568c-23.264-3.856-40.144-23.76-40.144-47.328v-240c0-26.464 21.536-48 48-48h416c26.464 0 48 21.536 48 48v240c0 23.568-16.88 43.472-40.128 47.328zM480 48c0-8.848-7.152-16-16-16h-416c-8.848 0-16 7.152-16 16v240c0 7.824 5.664 14.496 13.376 15.776l87.104 14.512 28.656 71.648c2.448 6.064 8.32 10.064 14.864 10.064h160c6.528 0 12.4-3.984 14.848-10.064l28.656-71.648 87.12-14.512c7.712-1.28 13.376-7.952 13.376-15.776v-240z" />
<glyph unicode="&#xe60c;" d="M502.256 257.872l-80 128c-11.68 18.704-32.192 30.080-54.256 30.080h-304c-35.344 0-64-28.656-64-64v-256c0-35.344 28.656-64 64-64h304c22.064 0 42.56 11.376 54.256 30.096l80 128c12.992 20.72 12.992 47.072 0 67.824zM475.12 207.008l-80-128.032c-5.872-9.408-16.032-15.024-27.12-15.024h-304c-17.648 0-32 14.368-32 32v256c0 17.648 14.352 32 32 32h304c11.088 0 21.248-5.632 27.12-15.024l80-128c6.448-10.32 6.448-23.632 0-33.92zM368 271.952c-26.528 0-48-21.488-48-48s21.472-48 48-48c26.496 0 48 21.504 48 48 0 26.512-21.504 48-48 48zM368 191.936c-17.68 0-32 14.336-32 32s14.32 32 32 32c17.664 0 32-14.336 32-32 0-17.648-14.336-32-32-32z" />
<glyph unicode="&#xe60d;" d="M400 272v64c0 79.536-64.464 144-144 144s-144-64.464-144-144v-64c-26.512 0-48-21.488-48-48v-112c0-79.536 64.464-144 144-144h96c79.536 0 144 64.464 144 144v112c0 26.528-21.504 48-48 48zM144 336c0 61.856 50.144 112 112 112s112-50.144 112-112v-64h-32v63.968c0 44.192-35.808 80-80 80s-80-35.808-80-80v-63.968h-32v64zM320 336v-64h-128v64c0 35.344 28.656 64 64 64s64-28.656 64-64zM416 176v-64c0-61.744-50.256-112-112-112h-96c-61.744 0-112 50.256-112 112v112c0 8.832 7.168 16 16 16 10.672 0 21.328 0 32 0h224c10.656 0 21.312 0 32 0 8.816 0 16-7.168 16-16v-48zM256 176c17.664 0 32-14.32 32-32 0-9.744-5.248-28.288-10.656-42.912-4.368-11.808-8.832-21.056-21.344-21.056-11.504 0-16.976 9.344-21.328 21.216-5.344 14.592-10.672 33.040-10.672 42.752 0 17.68 14.336 32 32 32z" />
<glyph unicode="&#xe60e;" d="M256 480c-97.216 0-176-78.784-176-176 0-64.496 59.008-132.848 80.496-192.88 32.048-89.52 28.496-143.12 95.504-143.12 68 0 63.44 53.344 95.504 142.752 21.552 60.16 80.496 129.248 80.496 193.248 0 97.216-78.816 176-176 176zM297.472 45.184l-79.328-9.904c-2.832 8.192-5.872 17.776-9.568 30.288-0.048 0.16-0.112 0.336-0.144 0.496l99.008 12.368c-1.408-4.72-2.912-9.68-4.224-14.128-2.096-7.184-3.968-13.424-5.744-19.12zM203.776 81.472c-2.912 9.632-6.192 19.776-9.84 30.528h124.256c-1.968-5.744-3.936-11.504-5.632-16.944l-108.784-13.584zM256 0c-16.208 0-23.664 1.872-31.952 20l67.808 8.496c-9.824-26.464-16.976-28.496-35.856-28.496zM330.752 144h-149.328c-7.968 17.28-17.536 34.56-26.976 51.472-20.88 37.36-42.448 76-42.448 108.528 0 79.408 64.592 144 144 144 79.408 0 144-64.592 144-144 0-32.288-21.6-71.136-42.496-108.72-9.344-16.848-18.848-34.096-26.752-51.28zM256 400c4.4 0 8-3.584 8-8s-3.584-8-8-8c-44.112 0-80-35.888-80-80 0-4.416-3.584-8-8-8-4.416 0-8 3.584-8 8 0 52.944 43.056 96 96 96z" />
<glyph unicode="&#xe60f;" d="M470.32 438.72c-26.32 26.288-60.976 41.28-95.136 41.28-28.816 0-55.344-10.688-74.72-30.032l-77.872-78.464c-0.24-0.224-0.512-0.368-0.752-0.608-0.128-0.128-0.208-0.304-0.336-0.416l0.032-0.032-165.264-166.544c-7.616-7.568-13.136-16.992-16.208-27.28l-37.584-136.128c-0.032-0.368-2.48-11.056-2.48-16.496 0-30.912 25.104-56 56.064-56 6.16 0 18.080 2.944 18.512 3.008l135.648 35.664c10.304 3.056 19.664 8.624 27.28 16.256l244.208 246.128c44.416 44.448 39.408 118.944-11.392 169.664zM256.224 99.28c-1.312 14.432-5.392 28.592-11.504 42.032l151.28 151.264c9.248-29.216 4.496-59.776-15.776-80.064-0.128-0.128-0.288-0.208-0.4-0.336l0.224-0.208-123.648-124.64c0 3.984 0.192 7.888-0.176 11.952zM236.688 155.904c-5.968 9.808-12.752 19.28-21.152 27.664-9.776 9.776-20.992 17.44-32.704 23.872l152.512 152.512c11.968-5.312 23.44-12.88 33.568-23.008 8.656-8.624 15.344-18.288 20.496-28.336l-152.72-152.704zM167.776 215.008c-14.816 5.968-30.336 9.376-45.888 9.584l123.248 124.192c18.864 18.4 46.336 23.696 73.392 16.992l-150.752-150.768zM66.672 2.032c-1.744-0.4-7.168-1.776-10.848-2.032-13.152 0.16-23.824 10.848-23.824 24 0.192 2.688 1.264 7.312 1.632 8.992l16.848 61.024c18.288 0.496 37.968-6.624 53.44-22.128 15.712-15.68 23.104-35.744 22.304-54.256l-59.552-15.6zM141.984 21.808c-0.384 21.472-9.12 43.808-26.752 61.408-16.672 16.688-38.496 26.32-60.256 27.184l15.936 57.712c1.152 3.84 3.44 7.632 6.256 10.944 32.096 22.976 81.456 16.192 115.744-18.128 36.272-36.256 41.872-89.376 13.936-121.088-1.856-0.976-3.728-1.904-5.744-2.496l-59.12-15.536zM459.056 291.648l-26.944-27.152c0 3.616 0.432 7.088 0.096 10.784-2.816 30.96-17.248 60.896-40.688 84.304-26.064 26.080-60.624 41.040-94.848 41.136l26.496 26.72c13.264 13.232 31.776 20.56 52.016 20.56 25.744 0 52.192-11.648 72.528-31.92 19.088-19.056 30.464-42.736 32.096-66.688 1.504-22.352-5.872-42.848-20.752-57.744z" />
<glyph unicode="&#xe610;" d="M502.624 325.168l-81.28 81.296c-6 6-14.16 9.376-22.624 9.376h-285.424c-8.48 0-16.624-3.376-22.624-9.376l-81.28-81.296c-6.288-6.272-9.424-14.544-9.392-22.832 0.048-7.52 2.736-15.024 8.096-21.056l223.984-238.528c6.080-6.848 14.784-10.752 23.92-10.752s17.84 3.904 23.904 10.752l224 238.528c5.472 6.16 8.16 13.872 8.096 21.568-0.064 8.096-3.216 16.16-9.376 22.32zM291.504 303.84h-71.024l35.52 29.584 35.504-29.584zM268.512 343.84l43.712 36.448 32.288-32.288-40.512-33.744-35.488 29.584zM208 314.256l-40.512 33.744 32.288 32.288 43.728-36.448-35.504-29.584zM295.84 287.84l-39.84-199.248-39.84 199.248h79.68zM312.16 287.84h78.496l-117.744-196.304 39.248 196.304zM316.464 303.84l39.408 32.816 32.816-32.816h-72.224zM331.312 383.84h56.192l-30.656-25.552-25.536 25.552zM256 354.24l-35.52 29.6h71.008l-35.488-29.6zM155.136 358.288l-30.656 25.552h56.208l-25.552-25.552zM156.128 336.656l39.392-32.816h-72.208l32.816 32.816zM199.84 287.84l39.248-196.304-117.76 196.304h78.512zM203.264 120.192l-157.44 167.648h56.864l100.576-167.648zM409.312 287.84h56.88l-157.472-167.68 100.592 167.68zM411.312 303.84l-43.088 43.088 36.752 30.64 73.712-73.728h-67.376zM106.976 377.6l36.816-30.672-43.104-43.088h-68.592l74.88 73.76z" />
<glyph unicode="&#xe611;" d="M432 400.064l-352-0.064c-8.848 0-16-7.088-16-15.936v-224c0-8.848 7.152-16 16-16h352c8.848 0 16 7.152 16 16v224c0 8.848-7.152 16-16 16zM432 160h-352v224.064h352v-224.064zM464 464h-416c-26.512 0-48-21.472-48-48v-320c0-26.464 21.408-47.904 47.84-47.968h160.16v-19.472l-99.872-12.976c-7.136-1.776-12.128-8.176-12.128-15.52 0-8.848 7.152-16 16-16h288c8.848 0 16 7.152 16 16 0 7.344-4.992 13.744-12.128 15.536l-99.872 12.96v19.472h160.16c26.432 0.064 47.84 21.504 47.84 47.968v320c0 26.528-21.504 48-48 48zM480 96c0-8.816-7.184-16-16-16h-416c-8.832 0-16 7.184-16 16v320c0 8.832 7.168 16 16 16h416c8.816 0 16-7.168 16-16v-320z" />
<glyph unicode="&#xe612;" d="M256.032 196.064c52.944 0 96 43.072 96 96s-43.056 96-96 96c-52.944 0-96-43.056-96-96s43.056-96 96-96zM256.032 372.064c44.128 0 80-35.872 80-80s-35.872-80-80-80c-44.128 0-80 35.872-80 80s35.872 80 80 80zM256 480c-105.888 0-192-85.056-192-192.016 0-112 96.016-226.576 166.016-307.104 0.256-0.32 11.488-12.88 25.376-12.88 0.032 0 1.168 0 1.232 0 13.872 0 25.12 12.56 25.376 12.88 70.032 80.528 166.032 195.088 166.032 307.104 0 106.96-86.128 192.016-192.032 192.016zM257.872 1.872c-0.336-0.32-1.312-1.024-2.16-1.568-0.16 0.432-1.344 1.376-2.064 2.128-58.64 67.472-157.648 181.344-157.648 285.552 0 88.224 71.792 160.016 160 160.016 88.256 0 160.032-71.792 160.032-160.032 0-104.192-99.008-218.064-158.16-286.096z" />
<glyph unicode="&#xe613;" d="M511.44 227.584c-0.16 0.672-0.064 1.392-0.32 2.048-0.096 0.272-0.336 0.416-0.432 0.672-0.16 0.384-0.128 0.816-0.336 1.184-46.4 88.816-147.408 152.448-253.968 152.448-106.576 0-207.568-63.536-254-152.336-0.208-0.368-0.176-0.8-0.336-1.184-0.112-0.256-0.336-0.4-0.432-0.672-0.256-0.656-0.16-1.376-0.32-2.048-0.288-1.2-0.56-2.352-0.56-3.584s0.288-2.368 0.56-3.584c0.16-0.672 0.064-1.392 0.32-2.048 0.096-0.272 0.336-0.416 0.432-0.672 0.16-0.384 0.128-0.816 0.336-1.184 46.416-88.816 147.424-152.448 254-152.448 106.56 0 207.568 63.536 253.968 152.336 0.224 0.368 0.192 0.8 0.336 1.184 0.096 0.256 0.336 0.4 0.432 0.672 0.256 0.656 0.16 1.376 0.32 2.048 0.272 1.216 0.56 2.368 0.56 3.584s-0.288 2.384-0.56 3.584zM256.368 96.192c-89.84 0-177.792 51.056-221.616 127.92 44.064 76.96 131.888 127.84 221.616 127.84 89.808 0 177.776-51.072 221.6-127.92-44.064-76.976-131.872-127.84-221.6-127.84zM256.368 288.016c4.416 0 7.968-3.568 7.968-8 0-4.4-3.568-7.984-7.968-7.984v-0.016c-26.464 0-47.984-21.52-47.984-47.952 0-4.416-3.584-8-7.984-8-4.416 0-8 3.584-8 8 0 35.28 28.592 63.872 63.872 63.936 0.032 0 0.064 0.016 0.096 0.016zM256 336c-61.872 0-112-50.144-112-112s50.144-112 112-112c61.84 0 112 50.16 112 112 0 61.872-50.16 112-112 112zM256 128c-52.944 0-96 43.056-96 96s43.056 96 96 96c52.944 0 96-43.056 96-96 0-52.944-43.056-96-96-96z" />
<glyph unicode="&#xe614;" d="M256 368c4.416 0 8-3.584 8-8s-3.6-8-8-8c-85.232 0-160-44.864-160-96 0-4.416-3.584-8-8-8-4.416 0-8 3.584-8 8 0 60.704 80.592 112 176 112zM256 448c-141.392 0-256-85.968-256-192 0-66.032 44.464-124.256 112.128-158.816 0-0.432-0.128-0.72-0.128-1.184 0-28.688-21.424-59.568-30.848-75.776 0.016 0 0.032 0 0.032 0-0.752-1.76-1.184-3.696-1.184-5.728 0-8 6.48-14.496 14.496-14.496 1.504 0 4.144 0.4 4.080 0.224 50 8.192 97.104 54.128 108.048 67.44 15.984-2.352 32.464-3.664 49.376-3.664 141.36 0 256 85.968 256 192 0 106.032-114.624 192-256 192zM256 96c-14.672 0-29.728 1.12-44.736 3.312-1.552 0.256-3.104 0.336-4.64 0.336-9.504 0-18.608-4.224-24.736-11.68-6.848-8.336-26.336-26.944-49.36-40.624 6.24 14.32 11.12 30.368 11.456 46.912 0.096 1.024 0.144 2.064 0.144 2.944 0 12.032-6.736 23.024-17.44 28.496-59.296 30.272-94.688 78.992-94.688 130.304 0 88.224 100.48 160 224 160 123.488 0 224-71.776 224-160 0-88.224-100.496-160-224-160z" />
<glyph unicode="&#xe615;" d="M510.784 184.72l-64.032 240.096c-3.872 13.648-16.528 23.184-30.752 23.184h-320c-14.24 0-26.88-9.536-30.752-23.184l-64.032-240.096c-0.816-2.912-1.216-5.84-1.216-8.72v-112c0-35.344 28.656-64 64-64h384c35.344 0 64 28.656 64 64v112c0 2.88-0.4 5.808-1.216 8.72zM480 64c0-17.632-14.368-32-32-32h-384c-17.648 0-32 14.368-32 32v112l64.016 240.016h319.952l64.032-240.016v-112zM379.872 384h-247.744c-7.248 0-13.6-4.88-15.472-11.888l-55.12-192c-1.264-4.816-0.256-9.936 2.784-13.872s7.712-6.24 12.672-6.24h73.088l23.152-46.32c5.44-10.832 16.512-17.68 28.64-17.68h108.256c12.128 0 23.184 6.848 28.624 17.68l23.152 46.32h73.088c4.976 0 9.664 2.32 12.688 6.256s4.032 9.056 2.784 13.872l-55.12 192c-1.872 7.008-8.224 11.872-15.472 11.872zM388.496 192h-26.592c-12.192 0-23.152-6.752-28.624-17.68l-23.152-46.32h-108.256l-23.152 46.32c-5.472 10.928-16.432 17.68-28.624 17.68h-64.752l46.784 176h247.744l46.784-176h-38.16z" />
<glyph unicode="&#xe616;" d="M449.776 399.648l-19.44 58.48c-4.336 13.072-16.56 21.872-30.336 21.872h-288c-13.792 0-26-8.8-30.368-21.872l-19.6-58.512c-16.704-1.072-30.032-14.64-30.032-31.616v-48c0-17.664 14.336-32 32-32h16.544c0-1.2-0.48-2.336-0.336-3.536l32-288c1.792-16.176 15.472-28.464 31.792-28.464h224c16.32 0 30 12.288 31.776 28.464l32 288c0.16 1.2-0.336 2.336-0.336 3.536h16.56c17.664 0 32 14.336 32 32v48c0 17.040-13.44 30.672-30.224 31.648zM112 448h288l16-48h-320l16 48zM144 0l-5.328 48h234.656l-5.328-48h-224zM375.088 64h-238.208l-17.776 160h273.776l-17.792-160zM394.656 240h-277.328l-5.328 48h288l-5.344-48zM448 320h-384v48h384v-48z" />
<glyph unicode="&#xe617;" d="M384 480h-256c-26.528 0-48-21.488-48-48v-416c0-26.528 21.488-48 48-48h256c26.496 0 48 21.504 48 48v416c0 26.528-21.504 48-48 48zM400 16c0-8.816-7.184-16-16-16h-256c-8.832 0-16 7.152-16 16v32.064h288v-32.064zM400 64.064h-288v319.936h288v-319.936zM400 400h-288v32c0 8.832 7.168 16 16 16h256c8.816 0 16-7.168 16-16v-32zM288 424c0-4.416-3.6-8-8-8h-48c-4.432 0-8 3.584-8 8v0c0 4.432 3.568 8 8 8h48c4.4 0 8-3.568 8-8v0zM272 24.064c0-4.4-3.6-8-8-8h-16c-4.416 0-8 3.6-8 8v0c0 4.432 3.584 8 8 8h16c4.4 0 8-3.568 8-8v0z" />
<glyph unicode="&#xe618;" d="M464 480h-352c-26.512 0-48-21.472-48-48v-32h-16c-26.512 0-48-21.472-48-48v-320c0-35.344 28.656-64 64-64h384c35.344 0 64 28.656 64 64v400c0 26.528-21.504 48-48 48zM480 32c0-17.632-14.368-32-32-32h-384c-17.648 0-32 14.368-32 32v320c0 8.832 7.168 16 16 16h16v-320c0-8.848 7.152-16 16-16s16 7.152 16 16v384c0 8.832 7.168 16 16 16h352c8.816 0 16-7.168 16-16v-400zM311.968 271.92c-4.4 0-8 3.584-8 8s3.6 8 8 8h128c4.432 0 8-3.584 8-8s-3.568-8-8-8h-128zM311.968 319.92c-4.4 0-8 3.584-8 8s3.6 8 8 8h128c4.432 0 8-3.584 8-8s-3.568-8-8-8h-128zM311.968 367.92c-4.4 0-8 3.584-8 8s3.6 8 8 8h128c4.432 0 8-3.584 8-8s-3.568-8-8-8h-128zM264 47.936c4.416 0 8-3.6 8-8 0-4.432-3.6-8-8-8h-128c-4.416 0-8 3.568-8 8 0 4.4 3.584 8 8 8h128zM264 95.936c4.416 0 8-3.6 8-8 0-4.432-3.6-8-8-8h-128c-4.416 0-8 3.568-8 8 0 4.4 3.584 8 8 8h128zM264 143.936c4.416 0 8-3.6 8-8 0-4.432-3.6-8-8-8h-128c-4.416 0-8 3.568-8 8 0 4.4 3.584 8 8 8h128zM440 47.936c4.4 0 8-3.6 8-8 0-4.432-3.6-8-8-8h-128c-4.432 0-8 3.568-8 8 0 4.4 3.568 8 8 8h128zM440 95.936c4.4 0 8-3.6 8-8 0-4.432-3.6-8-8-8h-128c-4.432 0-8 3.568-8 8 0 4.4 3.568 8 8 8h128zM440 143.936c4.4 0 8-3.6 8-8 0-4.432-3.6-8-8-8h-128c-4.432 0-8 3.568-8 8 0 4.4 3.568 8 8 8h128zM440 239.936c4.4 0 8-3.584 8-8s-3.6-8-8-8h-304c-4.416 0-8 3.584-8 8s3.584 8 8 8h304zM440 191.936c4.4 0 8-3.6 8-8 0-4.432-3.6-8-8-8h-304c-4.416 0-8 3.568-8 8 0 4.4 3.584 8 8 8h304zM144 272h112c8.848 0 16 7.152 16 16v111.936c0 8.848-7.152 16-16 16h-112c-8.848 0-16-7.152-16-16v-111.936c0-8.832 7.152-16 16-16zM160 384h80v-80h-80v80z" />
<glyph unicode="&#xe619;" d="M448 400h-384c-35.344 0-64-28.672-64-64v-208c0-35.344 28.656-64 64-64h384c35.344 0 64 28.656 64 64v208c0 35.328-28.656 64-64 64zM32 316l111.984-84-111.984-84v168zM480 128c0-17.664-14.368-32-32-32h-384c-17.648 0-32 14.336-32 32l125.312 94 69.888-52.432c8.528-6.368 18.656-9.6 28.8-9.6 10.128 0 20.256 3.216 28.784 9.6l69.904 52.432 125.312-94zM480 148l-112 84 112 84v-168zM275.184 182.368c-5.584-4.192-12.208-6.4-19.184-6.4s-13.616 2.224-19.2 6.4l-204.8 153.632c0 17.648 14.352 32 32 32h384c17.632 0 32-14.352 32-32l-204.816-153.632z" />
<glyph unicode="&#xe61a;" d="M466.624 312.448c-20 5.248-67.024 5.184-135.808 7.008 3.248 15.008 4 28.544 4 52.576 0 57.408-41.824 107.968-78.816 107.968-26.128 0-47.664-21.36-48-47.632-0.352-32.224-10.32-87.872-64-116.096-3.936-2.080-15.2-7.632-16.848-8.352l0.848-0.72c-8.4 7.248-20.048 12.8-32 12.8h-48c-26.464 0-48-21.536-48-48v-256c0-26.464 21.536-48 48-48h48c19.040 0 34.976 11.504 42.688 27.632 0.192-0.064 0.528-0.16 0.752-0.192 1.056-0.288 2.304-0.592 3.824-0.992 0.288-0.080 0.432-0.112 0.736-0.192 9.216-2.288 26.96-6.528 64.88-15.248 8.128-1.856 51.072-11.008 95.552-11.008h87.472c26.656 0 45.872 10.256 57.312 30.848 0.16 0.32 3.84 7.504 6.848 17.216 2.256 7.312 3.088 17.664 0.368 28.16 17.184 11.808 22.72 29.664 26.32 41.28 6.032 19.056 4.224 33.376 0.032 43.632 9.664 9.12 17.904 23.024 21.376 44.256 2.16 13.152-0.16 26.688-6.224 37.952 9.056 10.176 13.184 22.976 13.664 34.816l0.192 3.344c0.112 2.096 0.208 3.392 0.208 8 0 20.208-14 45.984-45.376 54.944zM112 16c0-8.848-7.152-16-16-16h-48c-8.848 0-16 7.152-16 16v256c0 8.848 7.152 16 16 16h48c8.848 0 16-7.152 16-16v-256zM479.632 247.44c-0.32-7.904-3.632-23.44-31.632-23.44-24 0-32 0-32 0-4.432 0-8-3.584-8-8s3.568-8 8-8c0 0 7.008 0 31.008 0s27.152-19.904 25.6-29.504c-1.984-11.936-7.584-34.496-34.608-34.496-26.992 0-38 0-38 0-4.432 0-8-3.568-8-8 0-4.4 3.568-8 8-8 0 0 19.008 0 31.504 0 27.008 0 24.624-20.592 20.752-32.88-5.104-16.144-8.224-31.12-42.256-31.12-11.504 0-26.096 0-26.096 0-4.432 0-8-3.568-8-8 0-4.4 3.568-8 8-8 0 0 11.088 0 25.088 0 17.504 0 18.32-16.56 16.496-22.496-2-6.496-4.368-11.312-4.464-11.536-4.832-8.72-12.624-13.968-29.12-13.968h-87.472c-43.936 0-87.52 9.968-88.64 10.224-66.464 15.312-69.968 16.496-74.144 17.68 0 0-13.536 2.288-13.536 14.096l-0.112 220.992c0 7.504 4.784 14.288 12.704 16.672 0.992 0.384 2.336 0.8 3.296 1.2 73.088 30.272 95.344 96.64 96 151.136 0.096 7.664 6 16 16 16 16.912 0 46.816-33.952 46.816-75.968 0-37.936-1.536-44.496-14.816-84.032 160 0 158.88-2.304 172.992-6 17.504-5.008 19.008-19.504 19.008-24.496 0-5.488-0.16-4.688-0.368-10.064zM72 64c-13.248 0-24-10.752-24-24s10.752-24 24-24 24 10.752 24 24-10.752 24-24 24zM72 32c-4.4 0-8 3.6-8 8s3.6 8 8 8 8-3.6 8-8-3.6-8-8-8z" />
<glyph unicode="&#xe61b;" d="M432 480h-352c-35.344 0-64-28.656-64-64v-384c0-35.344 28.656-64 64-64h352c35.344 0 64 28.656 64 64v384c0 35.344-28.656 64-64 64zM464 32c0-17.632-14.368-32-32-32h-352c-17.648 0-32 14.368-32 32v384c0 17.648 14.352 32 32 32h352c17.632 0 32-14.352 32-32v-384zM416 416h-320c-8.848 0-16-7.152-16-16v-288c0-8.848 7.152-16 16-16h320c8.848 0 16 7.152 16 16v288c0 8.848-7.152 16-16 16zM416 400v-221.904l-52 56.48c-3.056 3.456-7.408 5.424-12 5.424s-8.976-1.968-12-5.424l-41.664-47.2-126.336 143.2c-3.040 3.456-7.408 5.424-12 5.424s-8.96-1.968-12-5.424l-52-59.968v129.392h320zM96 246.4l64 73.6 138.336-156.816 44.192-51.184h-246.528v134.4zM363.84 112l-54.848 63.28 43.008 48.72 64-70.064v-41.936h-52.16zM320 272c26.496 0 48 21.488 48 48s-21.504 48-48 48c-26.528 0-48-21.488-48-48s21.472-48 48-48zM320 352c17.632 0 32-14.352 32-32s-14.368-32-32-32c-17.664 0-32 14.352-32 32s14.336 32 32 32z" />
<glyph unicode="&#xe61c;" d="M502.624 358.64l-96 96c-6 6-14.16 9.36-22.624 9.36h-336c-26.464 0-48-21.52-48-48v-384c0-26.464 21.536-48 48-48h416c26.464 0 48 21.536 48 48v304c0 8.496-3.376 16.64-9.376 22.64zM480 32c0-8.848-7.152-16-16-16h-416c-8.848 0-16 7.152-16 16v384c0 8.848 7.152 16 16 16h320v-64h-0.032c0-26.512 21.504-48 48-48h64.032v-288zM431.968 336h-16c-17.632 0-32 14.352-32 32h0.032v64l96-96h-48.032zM248 352c-4.416 0-8 3.568-8 8s3.584 8 8 8h80c4.4 0 8-3.584 8-8s-3.6-8-8-8h-80zM248 304c-4.416 0-8 3.584-8 8s3.584 8 8 8h80c4.4 0 8-3.584 8-8s-3.6-8-8-8h-80zM240 264c0 4.432 3.584 8 8 8h192c4.4 0 8-3.584 8-8s-3.6-8-8-8h-192c-4.416 0-8 3.584-8 8zM440 176c4.4 0 8-3.568 8-8 0-4.4-3.6-8-8-8h-368c-4.416 0-8 3.6-8 8 0 4.432 3.584 8 8 8h368zM440 128c4.4 0 8-3.568 8-8 0-4.4-3.6-8-8-8h-368c-4.416 0-8 3.6-8 8 0 4.432 3.584 8 8 8h368zM440 80c4.4 0 8-3.568 8-8 0-4.4-3.6-8-8-8h-368c-4.416 0-8 3.6-8 8 0 4.432 3.584 8 8 8h368zM440 224c4.4 0 8-3.584 8-8s-3.6-8-8-8h-368c-4.416 0-8 3.568-8 8s3.584 8 8 8h368zM80 256h112c8.848 0 16 7.152 16 16v96c0 8.848-7.152 16-16 16h-112c-8.848 0-16-7.152-16-16v-96c0-8.832 7.152-16 16-16zM96 352h80v-64h-80v64z" />
<glyph unicode="&#xe61d;" d="M240 320c0 8.837 7.163 16 16 16s16-7.163 16-16c0-8.837-7.163-16-16-16-8.837 0-16 7.163-16 16zM240 128c0 8.837 7.163 16 16 16s16-7.163 16-16c0-8.837-7.163-16-16-16-8.837 0-16 7.163-16 16zM144 224c0 8.837 7.163 16 16 16s16-7.163 16-16c0-8.837-7.163-16-16-16-8.837 0-16 7.163-16 16zM336 224c0 8.837 7.163 16 16 16s16-7.163 16-16c0-8.837-7.163-16-16-16-8.837 0-16 7.163-16 16zM172.112 156.128c0 8.837 7.163 16 16 16s16-7.163 16-16c0-8.837-7.163-16-16-16-8.837 0-16 7.163-16 16zM172.112 291.888c0 8.837 7.163 16 16 16s16-7.163 16-16c0-8.837-7.163-16-16-16-8.837 0-16 7.163-16 16zM307.872 156.128c0 8.837 7.163 16 16 16s16-7.163 16-16c0-8.837-7.163-16-16-16-8.837 0-16 7.163-16 16zM416 256c-1.12 0-2.064-0.528-3.152-0.64-5.568 27.92-18.72 52.896-36.752 73.504l-22.976 124.992c-2.8 15.152-16.032 26.144-31.456 26.144h-128c-15.424 0-28.64-11.008-31.472-26.16l-22.4-120.784c-26.88-28.592-43.792-66.688-43.792-109.056 0-41.328 16.224-78.48 41.936-106.848l22.592-123.008c2.816-15.136 16.048-26.144 31.472-26.144h128c15.408 0 28.624 11.008 31.472 26.16l22.784 122.912c19.024 20.976 32.848 46.72 38.592 75.6 1.088-0.144 2.032-0.672 3.152-0.672 17.664 0 32 14.336 32 32 0 17.68-14.336 32-32 32zM193.664 448h128l16-86.192c-23.632 13.744-50.688 22.192-80 22.192-29.296 0-56.368-8.448-80-22.192l16 86.192zM320 0h-128l-16 86.192c23.616-13.728 50.688-22.192 80-22.192 29.296 0 56.384 8.464 80 22.192l-16-86.192zM256 96c-70.576 0-128 57.44-128 128 0 70.576 57.424 128 128 128 70.576 0 128-57.424 128-128 0-70.56-57.44-128-128-128zM335.056 303.584c1.936-1.936 2.128-5.056 0.448-7.184l-38.816-48.336-29.568-35.6c-3.024-2.912-7.184-4.4-11.184-4.432-4.304 0.032-8.32 1.696-11.312 4.672-2.992 2.976-4.624 6.96-4.624 11.168 0 4.352 1.68 8.416 4.736 11.488l83.072 68.56c2.192 1.76 5.312 1.6 7.248-0.336z" />
<glyph unicode="&#xe61e;" d="M504.688 477.44c-2.656 1.712-5.68 2.56-8.688 2.56-3.088 0-6.192-0.88-8.88-2.688l-480-320c-4.944-3.28-7.664-9.056-7.024-14.976 0.608-5.904 4.448-11.008 9.968-13.184l125.184-50.096 58.864-103.008c2.816-4.944 8.048-8 13.712-8.064 0.064 0 0.112 0 0.176 0 5.616 0 10.832 2.976 13.712 7.776l33.232 55.408 155.12-62.032c1.904-0.768 3.904-1.136 5.936-1.136 2.72 0 5.408 0.688 7.84 2.064 4.224 2.368 7.12 6.528 7.936 11.312l80 480c1.040 6.288-1.744 12.592-7.088 16.064zM50.176 147.568l370.8 247.216-269.6-288.592c-1.424 0.848-2.688 1.968-4.256 2.592l-96.944 38.784zM163.024 94.944c-0.032 0.064-0.080 0.096-0.112 0.16l303.088 324.4-258.384-402.592-44.592 78.032zM403.472 6.256l-136.656 54.656c-3.248 1.28-6.624 1.712-9.968 1.904l210.432 326.208-63.808-382.768z" />
<glyph unicode="&#xe61f;" d="M128 383.664v48.336c0 26.464-21.536 48-48 48s-48-21.536-48-48v-48.336c-19.328-14.64-32-37.568-32-63.664s12.672-49.024 32-63.632v-240.368c0-26.464 21.536-48 48-48s48 21.536 48 48v240.368c19.328 14.592 32 37.536 32 63.632s-12.672 49.024-32 63.664zM64 432c0 8.848 7.152 16 16 16s16-7.152 16-16v-33.6c-5.168 1.040-10.512 1.6-16 1.6s-10.832-0.56-16-1.6v33.6zM96 16c0-8.848-7.152-16-16-16s-16 7.152-16 16v225.632c5.168-1.072 10.512-1.632 16-1.632s10.832 0.56 16 1.632v-225.632zM125.84 306.56c-0.256-0.848-0.48-1.68-0.784-2.528-1.52-4.224-3.472-8.224-6.048-11.776-0.064-0.096-0.16-0.16-0.224-0.256-2.784-3.808-6.096-7.184-9.856-10.032-0.064-0.064-0.112-0.096-0.16-0.128-3.856-2.912-8.16-5.248-12.784-6.88-5.008-1.808-10.336-2.96-15.984-2.96s-10.976 1.152-16 2.976c-4.624 1.632-8.928 3.968-12.784 6.88-0.048 0.032-0.096 0.064-0.16 0.128-3.76 2.848-7.072 6.224-9.856 10.032-0.064 0.096-0.16 0.16-0.224 0.256-2.576 3.568-4.528 7.568-6.048 11.776-0.304 0.848-0.528 1.68-0.784 2.528-1.264 4.272-2.144 8.736-2.144 13.424 0 4.72 0.88 9.184 2.16 13.472 0.256 0.848 0.48 1.68 0.784 2.496 1.504 4.224 3.456 8.224 6.048 11.808 0.064 0.096 0.16 0.16 0.224 0.256 2.784 3.776 6.096 7.184 9.856 10.032 0.064 0.032 0.112 0.096 0.16 0.128 3.84 2.864 8.144 5.216 12.768 6.864 5.024 1.792 10.352 2.944 16 2.944s10.976-1.152 16-2.944c4.624-1.664 8.928-4 12.784-6.88 0.048-0.032 0.096-0.096 0.16-0.128 3.76-2.848 7.072-6.256 9.856-10.032 0.064-0.096 0.16-0.16 0.224-0.256 2.576-3.568 4.528-7.568 6.032-11.792 0.304-0.816 0.544-1.648 0.784-2.496 1.28-4.288 2.16-8.752 2.16-13.472 0-4.688-0.88-9.152-2.16-13.44zM480 383.664v48.336c0 26.464-21.536 48-48 48s-48-21.536-48-48v-48.336c-19.344-14.64-32-37.568-32-63.664s12.656-49.024 32-63.632v-240.368c0-26.464 21.536-48 48-48s48 21.536 48 48v240.368c19.312 14.592 32 37.536 32 63.632s-12.688 49.024-32 63.664zM416 432c0 8.848 7.152 16 16 16s16-7.152 16-16v-33.6c-5.184 1.040-10.528 1.6-16 1.6-5.504 0-10.848-0.56-16-1.6v33.6zM448 16c0-8.848-7.152-16-16-16s-16 7.152-16 16v225.632c5.152-1.072 10.496-1.632 16-1.632 5.472 0 10.816 0.56 16 1.632v-225.632zM477.84 306.56c-0.256-0.848-0.496-1.68-0.784-2.528-1.536-4.224-3.472-8.224-6.064-11.776-0.064-0.096-0.16-0.16-0.224-0.256-2.784-3.808-6.096-7.184-9.84-10.032-0.064-0.064-0.128-0.096-0.16-0.128-3.872-2.912-8.16-5.248-12.784-6.88-5.008-1.808-10.352-2.96-15.984-2.96-5.664 0-10.976 1.152-16 2.976-4.624 1.632-8.944 3.968-12.784 6.88-0.064 0.032-0.096 0.064-0.16 0.128-3.776 2.848-7.088 6.224-9.872 10.032-0.064 0.096-0.16 0.16-0.224 0.256-2.56 3.568-4.528 7.568-6.032 11.776-0.32 0.848-0.528 1.68-0.784 2.528-1.264 4.272-2.144 8.736-2.144 13.424 0 4.72 0.88 9.184 2.16 13.472 0.256 0.848 0.464 1.68 0.784 2.496 1.504 4.224 3.472 8.224 6.032 11.808 0.064 0.096 0.16 0.16 0.224 0.256 2.784 3.776 6.096 7.184 9.872 10.032 0.064 0.032 0.096 0.096 0.16 0.128 3.84 2.88 8.16 5.216 12.784 6.88 5.008 1.776 10.32 2.928 15.984 2.928 5.632 0 10.976-1.152 16-2.944 4.624-1.664 8.912-4 12.784-6.88 0.032-0.032 0.096-0.096 0.16-0.128 3.744-2.848 7.056-6.256 9.84-10.032 0.064-0.096 0.16-0.16 0.224-0.256 2.592-3.6 4.528-7.6 6.064-11.808 0.288-0.816 0.528-1.664 0.784-2.496 1.264-4.272 2.144-8.736 2.144-13.456 0-4.688-0.88-9.152-2.16-13.44zM304 191.664v240.336c0 26.464-21.536 48-48 48s-48-21.536-48-48v-240.336c-19.328-14.624-32-37.568-32-63.664s12.672-49.024 32-63.632v-48.368c0-26.464 21.536-48 48-48s48 21.536 48 48v48.368c19.312 14.592 32 37.536 32 63.632s-12.688 49.024-32 63.664zM240 432c0 8.848 7.152 16 16 16s16-7.152 16-16v-225.6c-5.184 1.024-10.528 1.6-16 1.6-5.488 0-10.832-0.56-16-1.6v225.6zM272 16c0-8.848-7.152-16-16-16s-16 7.152-16 16v33.632c5.168-1.072 10.512-1.632 16-1.632 5.472 0 10.816 0.56 16 1.632v-33.632zM301.84 114.56c-0.256-0.848-0.496-1.68-0.784-2.528-1.536-4.224-3.472-8.224-6.064-11.776-0.064-0.096-0.16-0.16-0.224-0.256-2.784-3.808-6.096-7.184-9.84-10.032-0.064-0.064-0.128-0.096-0.16-0.128-3.872-2.912-8.16-5.248-12.784-6.88-5.008-1.808-10.352-2.96-15.984-2.96-5.648 0-10.976 1.152-16 2.976-4.624 1.632-8.928 3.968-12.784 6.88-0.048 0.032-0.096 0.064-0.16 0.128-3.76 2.848-7.072 6.224-9.856 10.032-0.064 0.096-0.16 0.16-0.224 0.256-2.576 3.568-4.528 7.568-6.048 11.776-0.304 0.848-0.528 1.68-0.784 2.528-1.264 4.272-2.144 8.736-2.144 13.424 0 4.72 0.88 9.184 2.16 13.472 0.256 0.848 0.48 1.68 0.784 2.496 1.52 4.224 3.472 8.224 6.048 11.808 0.064 0.096 0.16 0.16 0.224 0.256 2.784 3.776 6.096 7.184 9.856 10.032 0.064 0.032 0.112 0.096 0.16 0.128 3.856 2.88 8.16 5.216 12.784 6.88 5.008 1.776 10.336 2.928 15.984 2.928 5.632 0 10.976-1.152 16-2.944 4.624-1.664 8.912-4 12.784-6.88 0.032-0.032 0.096-0.096 0.16-0.128 3.744-2.848 7.056-6.256 9.84-10.032 0.064-0.096 0.16-0.16 0.224-0.256 2.592-3.6 4.528-7.6 6.064-11.808 0.288-0.816 0.528-1.664 0.784-2.496 1.264-4.272 2.144-8.736 2.144-13.456 0-4.688-0.88-9.152-2.16-13.44z" />
<glyph unicode="&#xe620;" d="M502.64 310.624l-160 160c-7.936 7.936-19.44 11.12-30.336 8.432-5.744-1.408-10.88-4.368-14.944-8.432-3.632-3.632-6.368-8.128-7.936-13.152-7.248-23.504-19.776-43.936-38.32-62.464-24.768-24.752-57.024-43.504-91.152-63.328-36.224-20.992-73.648-42.752-104.32-73.408-26.064-26.096-43.808-55.12-54.208-88.816-3.504-11.376-0.448-23.68 7.936-32.096l160-160c7.936-7.936 19.44-11.12 30.336-8.432 5.744 1.44 10.88 4.368 14.944 8.432 3.632 3.632 6.368 8.128 7.936 13.184 7.264 23.504 19.792 43.936 38.352 62.464 24.752 24.752 56.992 43.472 91.152 63.28 36.192 21.024 73.632 42.784 104.288 73.44 26.064 26.064 43.808 55.12 54.224 88.816 3.488 11.36 0.416 23.712-7.952 32.080zM192 0c-52.992 52.992-107.008 107.024-160 160 45.472 147.216 242.56 140.784 288 288 52.992-52.976 107.024-107.008 160.032-160-45.488-147.184-242.576-140.784-288.032-288zM312.992 241.6c-5.216 4.368-10.464 7.344-15.744 8.816-5.248 1.472-10.496 2.064-15.808 1.68-5.248-0.4-10.624-1.6-16-3.664-5.376-2.096-10.784-4.368-16.224-7.008-8.592 9.872-17.184 19.632-25.776 28.688 3.872 3.504 7.632 5.28 11.248 5.408 3.632 0.16 7.12-0.224 10.432-1.056 3.376-0.848 6.464-1.568 9.312-2.128 2.88-0.56 5.376 0.064 7.568 1.904 2.32 2 3.6 4.592 3.776 7.712 0.16 3.152-1.024 6.224-3.664 9.216-3.376 3.872-7.44 6.224-12.32 7.088-4.816 0.848-9.744 0.784-14.88-0.336-5.056-1.152-9.872-3.056-14.432-5.744s-8.224-5.44-10.944-8.128c-1.040 0.992-2.080 1.968-3.12 2.944-1.152 1.056-2.592 1.632-4.32 1.6-1.744 0-3.184-0.752-4.368-2.128-1.152-1.344-1.68-2.912-1.472-4.56 0.16-1.712 0.848-3.024 2.032-4.032 1.040-0.88 2.080-1.744 3.12-2.656-4.096-4.944-7.472-10.4-10.128-16.16-2.688-5.776-4.288-11.504-4.88-17.056-0.624-5.6-0.032-10.72 1.68-15.472 1.712-4.784 4.88-8.848 9.504-12.688 7.536-6.256 16.4-8.912 26.688-8.32 10.256 0.624 21.312 3.68 33.2 10.064 9.44-10.912 18.912-21.744 28.368-31.808-4-3.376-7.504-5.312-10.592-5.936-3.088-0.656-5.84-0.592-8.336 0.16-2.496 0.784-4.816 1.904-6.944 3.344-2.128 1.472-4.224 2.72-6.32 3.744-2.064 1.024-4.192 1.6-6.368 1.632s-4.496-1.024-7.056-3.216c-2.624-2.288-3.936-4.944-3.936-7.936 0-2.976 1.376-6 4.064-9.056 2.72-3.056 6.256-5.632 10.528-7.664s9.104-3.312 14.416-3.664c5.312-0.368 10.912 0.432 16.816 2.624 5.936 2.16 11.808 6.064 17.6 11.872 2.784-2.72 5.6-5.312 8.4-7.808 1.184-1.024 2.624-1.536 4.368-1.408 1.68 0.064 3.152 0.848 4.32 2.256 1.184 1.44 1.68 3.024 1.504 4.688-0.16 1.68-0.848 2.976-2 3.904-2.816 2.256-5.632 4.624-8.432 7.12 4.784 5.872 8.624 12.064 11.472 18.192 2.848 6.16 4.528 12.096 5.088 17.6 0.56 5.536-0.096 10.528-1.904 15.056-1.792 4.592-4.976 8.528-9.536 12.32zM223.536 230.752c-4.528-0.192-8.48 1.312-11.936 4.656-1.472 1.408-2.496 3.12-3.12 5.152-0.656 2.032-0.88 4.256-0.624 6.688 0.224 2.4 0.944 4.912 2.192 7.44 1.184 2.528 2.944 5.056 5.184 7.504 8.112-8.064 16.208-16.912 24.32-26.064-6.144-3.376-11.488-5.184-16.016-5.376zM299.008 198.72c-1.44-2.656-3.088-5.024-5.024-7.088-8.976 9.056-17.936 19.008-26.88 29.216 2.288 1.024 4.688 2.096 7.28 3.184s5.184 1.808 7.776 2.256c2.656 0.4 5.28 0.288 7.904-0.336 2.592-0.656 5.056-2.064 7.344-4.288 2.256-2.256 3.68-4.592 4.256-7.12 0.624-2.56 0.656-5.152 0.224-7.808-0.464-2.672-1.408-5.328-2.88-8.016zM235.472 125.12c3.152 2.544 7.792 2.416 10.688-0.528 3.136-3.12 3.136-8.224 0-11.344-0.256-0.256-0.528-0.432-0.816-0.656l0.032-0.032c-10.128-7.696-18.448-14.624-27.424-23.6-8.112-8.096-15.44-16.624-21.776-25.28l-10.224-14c-0.32-0.576-0.704-1.104-1.184-1.6-3.136-3.12-8.24-3.12-11.36 0-2.72 2.72-3.056 6.912-1.056 10.032l-0.032 0.032 10.944 14.944c6.832 9.344 14.688 18.496 23.376 27.184 9.040 9.072 18.8 17.168 28.8 24.848h0.032zM294.048 356.56c8.096 8.096 15.408 16.592 21.76 25.296l10.624 14.56c0.384 0.688 0.816 1.376 1.408 1.968 3.152 3.152 8.256 3.152 11.408 0 2.992-3.008 3.12-7.76 0.4-10.944l0.032-0.032-10.944-15.008c-6.848-9.344-14.688-18.464-23.376-27.152-9.040-9.040-18.784-17.168-28.784-24.848l-0.064 0.032c-3.184-2.928-8.128-2.864-11.184 0.224-3.152 3.152-3.152 8.288 0 11.44 0.56 0.592 1.216 1.008 1.872 1.376 9.408 7.184 18.48 14.72 26.848 23.088z" />
<glyph unicode="&#xe621;" d="M256 480c-107.904 0-224-32.528-224-104v-304c0-71.44 116.096-104 224-104 107.888 0 224 32.56 224 104v304c0 71.472-116.128 104-224 104zM448 72c0-39.744-85.968-72-192-72-106.048 0-192 32.256-192 72v59.776c33.056-34.064 112.8-51.776 192-51.776s158.944 17.712 192 51.776v-59.776zM448 168h-0.064c0-0.16 0.064-0.336 0.064-0.496 0-39.504-85.968-71.504-192-71.504-106.032 0-192 32-192 71.504 0 0.16 0.064 0.336 0.064 0.496h-0.064v59.776c33.056-34.064 112.8-51.776 192-51.776s158.944 17.712 192 51.776v-59.776zM448 264h-0.064c0-0.16 0.064-0.336 0.064-0.496 0-39.504-85.968-71.504-192-71.504-106.032 0-192 32-192 71.504 0 0.16 0.064 0.336 0.064 0.496h-0.064v54.976c41.936-31.952 118.8-46.976 192-46.976s150.064 15.024 192 46.976v-54.976zM256 304c-106.048 0-192 32.256-192 72 0 39.776 85.952 72 192 72 106.032 0 192-32.224 192-72 0-39.744-85.968-72-192-72zM384 64c0 8.837 7.163 16 16 16s16-7.163 16-16c0-8.837-7.163-16-16-16-8.837 0-16 7.163-16 16zM384 160c0 8.837 7.163 16 16 16s16-7.163 16-16c0-8.837-7.163-16-16-16-8.837 0-16 7.163-16 16zM384 256c0 8.837 7.163 16 16 16s16-7.163 16-16c0-8.837-7.163-16-16-16-8.837 0-16 7.163-16 16z" />
<glyph unicode="&#xe622;" d="M500.576 472.496c-5.808 4.88-13.088 7.504-20.56 7.504-1.84 0-3.712-0.16-5.568-0.496l-272.032-48c-15.296-2.688-26.432-15.968-26.432-31.504v-274.72c-16.24 11.776-37.312 18.72-60.704 18.72-13.6 0-27.2-2.256-40.464-6.656-30.368-10.128-54.72-30.432-66.816-55.744-9.344-19.568-10.544-40.848-3.424-59.936 12.176-32.608 46.768-53.664 88.128-53.664 13.6 0 27.2 2.224 40.448 6.656 30.352 10.096 54.704 30.4 66.8 55.68 5.2 10.912 7.632 22.336 7.728 33.664h0.288v256c1.84 0 3.712 0.16 5.568 0.464l266.48 47.024v-194.208c-16.256 11.776-37.312 18.72-60.72 18.72-13.6 0-27.216-2.256-40.464-6.656-30.368-10.128-54.72-30.432-66.784-55.744-9.344-19.568-10.56-40.848-3.44-59.936 12.192-32.608 46.752-53.664 88.128-53.664 13.6 0 27.216 2.224 40.464 6.656 30.336 10.096 54.688 30.4 66.784 55.68 5.216 10.912 7.632 22.336 7.744 33.664h0.288v336c0 9.44-4.192 18.432-11.44 24.496zM123.008 4.992c-38.336-12.784-77.968-0.288-88.464 27.84-10.528 28.16 12.016 61.344 50.336 74.128 38.336 12.784 77.968 0.32 88.464-27.84 10.544-28.144-12-61.344-50.336-74.128zM426.448 52.992c-38.368-12.784-78-0.288-88.496 27.84-10.528 28.16 12.032 61.344 50.336 74.128 38.368 12.784 78 0.32 88.496-27.84 10.544-28.144-11.984-61.344-50.336-74.128zM479.36 400l-272.032-48v48l272.032 48v-48z" />
<glyph unicode="&#xe623;" d="M400 480c-32.848 0-58.656-22.56-77.184-57.376l-0.336 0.192c-26.912-52.688-66.976-86.816-110.864-86.816h-147.616c-35.888 0-64-35.152-64-80 0-44.88 28.112-80 64-80 17.648-0.064 31.92-14.336 31.92-32v-144c0-17.68 14.336-32 32-32h64c17.664 0 32 14.32 32 32v16c0 16-16 23.152-16 32v112c0 0.368 0.256 0.624 0.288 0.992 0.16 2.288 0.784 4.4 1.792 6.32 0.288 0.528 0.592 0.944 0.944 1.408 1.28 1.904 2.896 3.472 4.864 4.688 0.096 0.064 0.128 0.16 0.224 0.224 0.064 0 0.112 0.064 0.176 0.064 1.28 0.72 2.816 0.88 4.256 1.28 40.384-4.288 76.944-36.88 102.032-85.968l0.4 0.192c18.544-34.704 44.288-57.2 77.104-57.2 73.536 0 112 112.688 112 224s-38.464 224-112 224zM320 256c0 16.592 0.976 32.624 2.624 48h45.376c17.664 0 32-21.504 32-48 0-26.528-14.336-48-32-48h-45.376c-1.648 15.376-2.624 31.376-2.624 48zM32 256c0 26.496 14.336 48 32 48h112.224c-9.92-11.664-16.224-28.592-16.224-48 0-19.44 6.304-36.368 16.224-48h-112.224c-17.664 0-32 21.472-32 48zM191.92 0h-64v144c0 11.664-3.12 22.56-8.592 32h11.168v-0.192h48.128c-1.712-4.976-2.704-10.256-2.704-15.808v-112c0-15.408 8.608-25.664 13.744-31.776 0.704-0.848 1.536-1.712 2.256-2.656v-13.568zM211.616 207.808h-3.616v0.192c-17.664 0-32 21.472-32 48 0 26.496 14.336 48 32 48h3.616c30.176 0 58.432 11.872 83.296 32.288-4.576-25.76-6.912-53.040-6.912-80.288 0-27.344 2.336-54.72 6.944-80.496-24.88 20.432-53.152 32.304-83.328 32.304zM400 64c-32.288 0-60 45.936-72.656 112h40.656c35.872 0 64 35.12 64 80 0 44.848-28.128 80-64 80h-40.656c12.656 66.032 40.368 112 72.656 112 44.192 0 80-85.968 80-192s-35.808-192-80-192z" />
<glyph unicode="&#xe624;" d="M512 352c0 22.496-15.312 41.728-37.216 46.784l-208.208 48.048c-3.488 0.784-7.040 1.168-10.576 1.168s-7.088-0.384-10.8-1.216l-207.984-48c-21.92-5.056-37.216-24.288-37.216-46.784s15.312-41.728 37.2-46.784l42.8-9.872v-135.344c0-42.464 48.608-80 176-80s176 37.536 176 80v135.344l42.784 9.872c21.904 5.056 37.216 24.288 37.216 46.784zM400 160c0-17.68-48-48-144-48s-144 30.32-144 48v127.952l133.408-30.784c3.488-0.784 7.056-1.168 10.592-1.168s7.104 0.384 10.784 1.216l133.216 30.736v-127.952zM259.6 288.4c-1.2-0.256-2.4-0.4-3.6-0.4s-2.416 0.144-3.6 0.4l-208 48c-7.264 1.68-12.4 8.144-12.4 15.6s5.136 13.92 12.4 15.6l208 48c1.184 0.256 2.384 0.4 3.6 0.4s2.416-0.144 3.6-0.4l208-48c7.248-1.68 12.4-8.144 12.4-15.6s-5.152-13.92-12.4-15.6l-208-48zM464 272c0 8.848 7.152 16 16 16 8.832 0 16-7.152 16-16v-144c0-8.848-7.168-16-16-16-8.848 0-16 7.152-16 16v144zM480 96c17.664 0 32-46.336 32-64s-14.336-32-32-32c-17.68 0-32 14.336-32 32 0 17.664 14.32 64 32 64z" />
<glyph unicode="&#xe625;" d="M330.912 420.288c-7.568 7.552-17.6 11.712-28.288 11.712s-20.72-4.16-28.32-11.728l-22.56-22.592c-7.568-7.552-11.744-17.6-11.744-28.304 0-7.536 2.064-14.752 5.936-21.008l-217.232-87.024c-14.528-6.384-24.944-19.488-27.872-35.024-2.96-15.632 2-31.664 13.344-42.992l203.52-201.28c8.768-8.768 20.416-13.744 32.72-14.032 0.288-0.016 0.96-0.016 1.248-0.016 3.232 0 6.512 0.336 9.76 0.992 15.904 3.296 28.928 14.288 34.832 29.248l85.472 214.016c6.432-4.24 14-6.512 21.872-6.512 10.72 0 20.752 4.176 28.288 11.728l22.512 22.528c7.632 7.584 11.808 17.648 11.808 28.368s-4.192 20.8-11.712 28.288l-123.584 123.632zM266.544 10.128c-1.984-5.008-6.352-8.704-11.632-9.792-1.216-0.256-2.448-0.352-3.664-0.336-4.064 0.096-7.984 1.728-10.912 4.672l-203.648 201.408c-3.744 3.728-5.392 9.072-4.4 14.288 0.976 5.184 4.464 9.568 9.312 11.68l99.472 39.84c67.024-22.288 134.064-0.816 201.12-72.352l-75.648-189.408zM431.872 262.72l-22.624-22.608c-3.12-3.136-8.192-3.136-11.312 0l-28.288 28.272-22.912-57.424 1.904 4.848c-48.16 48.080-97.104 54.144-141.264 59.568-14.192 1.744-27.952 3.568-41.472 6.48l135.856 54.416-27.44 27.44c-3.12 3.12-3.12 8.192 0 11.312l22.624 22.64c3.12 3.12 8.192 3.12 11.312 0l123.6-123.632c3.168-3.12 3.168-8.192 0.016-11.312zM264 144c22.048 0 40 17.936 40 40s-17.936 40-40 40c-22.064 0-40-17.936-40-40s17.952-40 40-40zM264 208c13.248 0 24-10.752 24-24s-10.752-24-24-24c-13.264 0-24 10.752-24 24s10.736 24 24 24zM472 480c-22.064 0-40-17.936-40-40s17.936-40 40-40 40 17.936 40 40-17.936 40-40 40zM472 416c-13.248 0-24 10.752-24 24s10.752 24 24 24 24-10.752 24-24-10.752-24-24-24zM128 208c0-17.648 14.352-32 32-32s32 14.352 32 32-14.352 32-32 32-32-14.352-32-32zM160 224c8.832 0 16-7.152 16-16s-7.168-16-16-16-16 7.152-16 16 7.168 16 16 16zM192 112c0 8.837 7.163 16 16 16s16-7.163 16-16c0-8.837-7.163-16-16-16-8.837 0-16 7.163-16 16zM448 352c0 8.837 7.163 16 16 16s16-7.163 16-16c0-8.837-7.163-16-16-16-8.837 0-16 7.163-16 16z" />
<glyph unicode="&#xe626;" d="M472 144h-43.056c-0.72 3.824-1.6 7.568-2.56 11.296l76.784 38.384c7.904 3.952 11.088 13.568 7.152 21.472-3.968 7.904-13.536 11.072-21.472 7.152l-73.248-36.608c-27.936 60.288-88.88 102.304-159.6 102.304-86.112 0-157.84-62.208-172.944-144h-43.056c-22.048 0-40-17.936-40-40 0-7.84 2.88-15.408 8.080-21.264l55.92-62.912v-11.824c0-22.064 17.952-40 40-40h304c22.064 0 40 17.936 40 40v11.824l55.904 62.912c5.216 5.856 8.096 13.424 8.096 21.264 0 22.064-17.936 40-40 40zM412.784 144h-8.992l7.968 4c0.304-1.344 0.736-2.64 1.024-4zM256 272c64.464 0 120-38.4 145.312-93.456l-14.256-7.12c-22.656 49.84-72.736 84.576-131.056 84.576-68.512 0-125.744-47.888-140.32-112h-16.448c14.864 72.944 79.504 128 156.768 128zM329.216 144c-12.368 28.208-40.496 48-73.216 48s-60.832-19.792-73.216-48h-17.184c13.216 37.216 48.688 64 90.4 64 39.44 0 73.408-23.936 88.128-58.032l-14.912-5.968zM256 160c-14.128 0-26.72-6.256-35.52-16h-19.584c11.104 19.024 31.52 32 55.104 32 23.568 0 44-12.976 55.088-32h-19.6c-8.768 9.744-21.36 16-35.488 16zM256 224c-50.64 0-93.472-33.792-107.28-80h-16.512c14.272 55.104 64.272 96 123.792 96 51.936 0 96.688-31.168 116.72-75.744l-14.288-7.136c-17.408 39.312-56.752 66.88-102.432 66.88zM416 32v-24c0-4.416-3.6-8-8-8h-304c-4.416 0-8 3.584-8 8v24l-64 72c0 4.416 3.584 8 8 8h432c4.4 0 8-3.584 8-8l-64-72zM127.632 292.608c-0.112 0.224-0.192 0.432-0.288 0.672-8.304 20.048-0.048 39.712 7.408 57.456 7.056 16.832 13.312 31.744 6.848 46.288-0.032 0.064-0.048 0.128-0.080 0.192-0.016 0.048-0.032 0.096-0.048 0.144-0.016 0.032-0.016 0.064-0.016 0.096-0.32 0.848-0.512 1.744-0.512 2.704 0 4.32 3.504 7.84 7.84 7.84 3.328 0 6.16-2.080 7.296-5.008 8.928-20.336 0.816-40.336-6.752-58.352-7.008-16.672-12.704-32.16-6.704-46.272 0.032-0.112 0.032-0.208 0-0.32 0.176-0.64 0.288-1.312 0.288-2 0-4.432-3.6-8.048-8.032-8.048-3.104 0-5.76 1.76-7.088 4.32-0.016 0-0.032 0-0.032 0-0.048 0.096-0.080 0.192-0.128 0.288zM322.464 294.944c-0.096 0.208-0.176 0.432-0.256 0.64-8.304 20.048-0.064 39.728 7.376 57.472 7.072 16.832 13.312 31.744 6.848 46.288 0 0.064-0.032 0.128-0.064 0.192-0.032 0.048-0.032 0.096-0.064 0.144 0 0.032 0 0.064 0 0.096-0.304 0.848-0.528 1.744-0.528 2.704 0 4.32 3.52 7.84 7.84 7.84 3.344 0 6.16-2.064 7.312-5.008 8.928-20.336 0.816-40.336-6.752-58.352-7.008-16.672-12.688-32.16-6.72-46.272 0.064-0.112 0.064-0.208 0.032-0.32 0.16-0.64 0.288-1.312 0.288-2 0-4.432-3.632-8.048-8.064-8.048-3.088 0-5.744 1.776-7.088 4.336h-0.032c-0.032 0.096-0.064 0.192-0.128 0.288zM240.304 364.608c-0.112 0.224-0.192 0.432-0.304 0.656-8.32 20.048-0.064 39.728 7.392 57.472 7.056 16.832 13.312 31.744 6.848 46.288-0.016 0.064-0.048 0.128-0.064 0.192-0.016 0.048-0.032 0.096-0.048 0.144-0.016 0.032-0.016 0.064-0.016 0.096-0.32 0.848-0.512 1.744-0.512 2.704 0 4.32 3.52 7.84 7.84 7.84 3.344 0 6.16-2.080 7.312-5.024 8.928-20.336 0.816-40.336-6.752-58.352-7.008-16.672-12.704-32.16-6.704-46.272 0.032-0.112 0.032-0.208 0-0.32 0.176-0.64 0.288-1.312 0.288-2 0-4.432-3.6-8.048-8.032-8.048-3.088 0-5.744 1.776-7.088 4.336-0.016 0-0.032 0-0.032 0-0.048 0.096-0.080 0.192-0.128 0.288z" />
<glyph unicode="&#xe627;" d="M397.312 296.88c-2.976 4.448-7.968 7.12-13.312 7.12h-16c-8.848 0-16-7.152-16-16v-96c0-8.848 7.152-16 16-16h64c8.848 0 16 7.152 16 16v24c0 3.152-0.944 6.256-2.688 8.88l-48 72zM432 192h-64v96h16l48-72v-24zM503.936 234.624l-64 96c-8.928 13.392-23.872 21.376-39.936 21.376h-64v32c0 26.464-21.536 48-48 48h-240c-26.464 0-48-21.536-48-48v-176c0-26.464 21.536-48 48-48v0-48c0-26.464 21.536-48 48-48h18.272c7.152-27.536 32-48 61.744-48 29.712 0 54.56 20.464 61.712 48h84.512c7.152-27.536 32-48 61.744-48 29.712 0 54.56 20.464 61.712 48h18.304c26.464 0 48 21.536 48 48v96c0 9.504-2.784 18.72-8.064 26.624zM48 192c-8.832 0-16 7.152-16 16v176c0 8.848 7.168 16 16 16h240c8.848 0 16-7.152 16-16v-176c0-8.848-7.152-16-16-16h-240zM176.016 48c-17.68 0-32 14.336-32 32s14.32 32 32 32c17.664 0 32-14.336 32-32s-14.352-32-32-32zM384 48c-17.68 0-32 14.336-32 32s14.32 32 32 32c17.664 0 32-14.336 32-32s-14.336-32-32-32zM480 112c0-8.848-7.152-16-16-16h-18.288c-7.152 27.536-32 48-61.712 48-29.744 0-54.592-20.464-61.744-48h-84.512c-7.152 27.536-32 48-61.712 48-29.744 0-54.592-20.464-61.744-48h-18.288c-8.832 0-16 7.152-16 16v48h208c26.464 0 48 21.536 48 48v112h64c5.344 0 10.336-2.672 13.312-7.12l64-96c1.744-2.624 2.688-5.728 2.688-8.88v-96z" />
<glyph unicode="&#xe628;" d="M248 480c-136.976 0-248-111.024-248-248s111.024-248 248-248 248 111.024 248 248-111.024 248-248 248zM463.6 240h-95.936c-0.88 35.44-7.184 69.296-18.368 100.288 21.6 9.008 41.568 20.992 59.776 35.152 32.368-36.336 52.608-83.52 54.528-135.44zM239.152 16.448c-26.592 22.144-48.896 50.896-65.216 84.288 20.944 6.544 43.136 10.128 66.064 10.864v-95.184c-0.288 0-0.56 0.016-0.848 0.032zM256.816 447.552c30.176-25.12 54.8-58.768 71.456-98.016-22.816-7.792-47.056-12.32-72.288-13.12v111.184c0.304-0.016 0.56-0.032 0.832-0.048zM283.472 444.832c44.16-7.344 83.776-27.968 114.624-57.824-16.752-12.848-35.056-23.728-54.848-31.968-14.56 34.512-34.992 65.024-59.776 89.792zM240 447.6v-111.184c-25.232 0.816-49.488 5.328-72.288 13.12 16.656 39.248 41.28 72.896 71.456 98.016 0.288 0.016 0.544 0.032 0.832 0.048zM152.736 355.024c-19.76 8.24-38.080 19.12-54.832 31.968 30.832 29.856 70.464 50.48 114.624 57.824-24.8-24.752-45.216-55.264-59.792-89.792zM161.68 334.784c24.672-8.56 50.96-13.552 78.32-14.384v-80.4h-95.664c0.864 33.504 6.8 65.52 17.344 94.784zM240 224v-96.4c-25.232-0.768-49.632-4.896-72.624-12.304-13.856 32.992-22.032 69.744-23.040 108.704h95.664zM212.528 19.168c-39.568 6.576-75.504 23.808-104.72 48.832 15.76 10.928 32.8 20.176 51.008 27.2 13.952-28.928 32.208-54.608 53.712-76.032zM256 16.4v95.184c22.912-0.736 45.12-4.32 66.064-10.864-16.336-33.392-38.624-62.144-65.216-84.288-0.272 0-0.56-0.016-0.848-0.032zM337.184 95.2c18.192-7.024 35.216-16.288 51.008-27.2-29.216-25.008-65.152-42.256-104.72-48.832 21.504 21.424 39.744 47.104 53.712 76.032zM328.624 115.296c-23.008 7.408-47.408 11.536-72.624 12.304v96.4h95.664c-1.008-38.96-9.2-75.712-23.040-108.704zM256 240v80.4c27.344 0.832 53.632 5.808 78.32 14.368 10.528-29.264 16.464-61.28 17.344-94.784h-95.664zM86.944 375.44c18.208-14.16 38.176-26.144 59.76-35.152-11.184-30.992-17.488-64.848-18.368-100.288h-95.936c1.92 51.92 22.16 99.104 54.544 135.44zM32.4 224h95.936c0.992-40.88 9.536-79.488 24.048-114.192-20.272-7.904-39.168-18.432-56.608-30.896-37.568 37.392-61.28 88.512-63.376 145.088zM400.224 78.928c-17.44 12.448-36.336 22.992-56.624 30.896 14.528 34.704 23.056 73.312 24.064 114.192h95.936c-2.096-56.592-25.824-107.712-63.376-145.088z" />
<glyph unicode="&#xe629;" d="M351.216 461.6c-131.232 52.544-280.24-11.232-332.8-142.48-52.576-131.264 11.232-280.288 142.48-332.832 131.248-52.56 280.256 11.232 332.816 142.48 52.576 131.264-11.248 280.256-142.496 332.832zM172.8 15.984c-114.656 45.92-170.592 176.544-124.688 291.216 45.92 114.656 176.56 170.608 291.232 124.672 114.656-45.904 170.592-176.544 124.688-291.2-45.936-114.672-176.56-170.592-291.232-124.688zM267.984 253.648c-16.4 6.576-35.040-1.408-41.616-17.808s1.408-35.024 17.792-41.6c16.4-6.576 35.056 1.408 41.616 17.792 6.56 16.4-1.408 35.024-17.792 41.616zM250.112 209.072c-8.192 3.296-12.176 12.608-8.912 20.816 3.296 8.192 12.624 12.176 20.816 8.912 8.176-3.28 12.16-12.608 8.896-20.816-3.28-8.192-12.608-12.176-20.8-8.912zM291.744 313.040c-49.216 19.712-105.088-4.224-124.8-53.424-19.712-49.216 4.224-105.088 53.424-124.8 49.216-19.712 105.088 4.208 124.8 53.424s-4.192 105.104-53.424 124.8zM232.288 164.528c-32.768 13.104-48.736 50.448-35.632 83.2 13.12 32.752 50.432 48.736 83.184 35.632 32.784-13.12 48.752-50.464 35.664-83.216-13.136-32.752-50.464-48.752-83.216-35.616zM374.912 176.352h-0.032c-13.072-32.624-38.128-56.896-68.096-69.856-0.112-0.048-0.176-0.176-0.336-0.24-4.064-1.728-8.752 0.144-10.496 4.224-1.744 4.048 0.16 8.752 4.192 10.48 26.336 11.28 48.4 32.608 59.904 61.344v-0.016c1.648 4.112 6.304 6.112 10.4 4.448 4.096-1.632 6.096-6.288 4.464-10.384zM429.84 162.976c4.096-1.648 6.096-6.304 4.464-10.4-19.6-48.928-57.216-85.36-102.16-104.768-0.192-0.080-0.336-0.256-0.528-0.352-4.064-1.728-8.752 0.128-10.496 4.208-1.744 4.064 0.16 8.768 4.192 10.496 41.408 17.728 76.064 51.248 94.128 96.368 1.648 4.096 6.304 6.096 10.4 4.448zM400.128 174.864c4.096-1.648 6.096-6.304 4.464-10.4-16.336-40.784-47.68-71.12-85.12-87.296-0.176-0.096-0.272-0.24-0.432-0.32-4.064-1.728-8.752 0.144-10.496 4.208-1.744 4.064 0.16 8.768 4.224 10.512h-0.032c33.904 14.512 62.24 41.92 76.992 78.848 1.648 4.112 6.304 6.096 10.4 4.448zM216.208 337.408c1.744-4.080-0.144-8.768-4.208-10.528-26.336-11.264-48.4-32.608-59.888-61.312h-0.016c-1.632-4.096-6.288-6.096-10.4-4.448-4.096 1.648-6.096 6.288-4.448 10.4h0.016c13.056 32.608 38.128 56.896 68.096 69.856 0.112 0.048 0.192 0.176 0.336 0.224 4.064 1.744 8.768-0.112 10.512-4.192zM191.008 396.24c1.744-4.064-0.144-8.752-4.192-10.512-41.408-17.728-76.048-51.248-94.128-96.352-1.648-4.112-6.304-6.096-10.4-4.448-4.112 1.632-6.112 6.288-4.448 10.416 19.6 48.928 57.2 85.344 102.16 104.768 0.16 0.080 0.304 0.256 0.496 0.336 4.064 1.728 8.768-0.144 10.512-4.208zM199.392 356.336v-0.048c-33.872-14.496-62.224-41.92-76.992-78.848-1.648-4.112-6.304-6.080-10.4-4.448-4.080 1.664-6.096 6.304-4.432 10.416 16.32 40.768 47.664 71.136 85.12 87.328 0.16 0.064 0.256 0.224 0.416 0.288 4.064 1.744 8.768-0.144 10.512-4.192 1.744-4.080-0.16-8.768-4.208-10.496z" />
<glyph unicode="&#xe62a;" d="M256 160c0 17.673 14.327 32 32 32s32-14.327 32-32c0-17.673-14.327-32-32-32-17.673 0-32 14.327-32 32zM464.016 272c-0.016 0-0.016 0 0 0l-0.016 96v48c0 26.512-21.504 48-48 48h-328c-48.528 0-88-39.488-88-88v-320c0-48.512 39.472-88 88-88h288c48.512 0 88 39.488 88 88v24c0 0 0 0 0.016 0 63.968 48.016 63.968 143.984 0 192zM88 432h328c8.816 0 16-7.168 16-16v-98.944c-5.024 1.792-10.368 2.944-16 2.944h-0.016v80c0 8.848-7.168 16-16 16h-336c-8.832 0-16-7.152-16-16v-63.088c-9.872 10.096-15.984 23.856-15.984 39.088 0 30.928 25.056 56 56 56zM399.984 384h-336v16h336v-16zM399.984 368v-16h-336v16h336zM399.984 336v-16h-311.984c-8.64 0-16.704 2.112-24 5.6v10.4h335.984zM432 56c0-30.928-25.072-56-56-56h-288c-30.944 0-56 25.072-56 56v252.176c15.216-12.592 34.736-20.176 56-20.176h328c8.816 0 16-7.168 16-16v-32h-144c-44.192 0-80-35.808-80-80s35.824-80 80-80h144v-24zM452.432 112h-164.432c-26.464 0-48 21.536-48 48s21.536 48 48 48h144c9.872 0.128 19.664 4.912 25.632 12.864 1.664 2.24 2.96 4.752 4 7.376 0.144 0.352 0.4 0.624 0.528 0.992 11.504-15.088 17.84-33.584 17.84-53.232 0-24.608-9.936-47.44-27.568-64z" />
<glyph unicode="&#xe62b;" d="M469.344 432h-69.344v32c0 8.848-7.152 16-16 16s-16-7.152-16-16v-32h-96v32c0 8.848-7.168 16-16 16s-16-7.152-16-16v-32h-96v32c0 8.848-7.168 16-16 16s-16-7.152-16-16v-32h-69.328c-23.568 0-42.672-19.088-42.672-42.656v-378.672c0-23.568 19.104-42.672 42.672-42.672h426.672c23.568 0 42.656 19.104 42.656 42.672v378.672c0 23.568-19.088 42.656-42.656 42.656zM480 10.672c0-5.888-4.784-10.672-10.656-10.672h-426.672c-5.888 0-10.672 4.784-10.672 10.672v378.672c0 5.872 4.784 10.656 10.672 10.656h69.328v-32c0-8.848 7.168-16 16-16s16 7.152 16 16v32h96v-32c0-8.848 7.168-16 16-16s16 7.152 16 16v32h96v-32c0-8.848 7.152-16 16-16s16 7.152 16 16v32h69.344c5.872 0 10.656-4.784 10.656-10.656v-378.672zM112 288h64v-48h-64zM112 208h64v-48h-64zM112 128h64v-48h-64zM224 128h64v-48h-64zM224 208h64v-48h-64zM224 288h64v-48h-64zM336 128h64v-48h-64zM336 208h64v-48h-64zM336 288h64v-48h-64z" />
<glyph unicode="&#xe62c;" d="M502.4 300.8l-48 63.968c-1.872 2.512-4.096 4.688-6.4 6.768v76.464c0 17.664-14.336 32-32 32h-320c-17.68 0-32-14.336-32-32v-76.48c-2.304-2.064-4.528-4.224-6.4-6.72l-47.984-63.984c-6.208-8.256-9.616-18.48-9.616-28.816v-16c0-26.464 21.536-48 48-48v0-208c0-17.664 14.336-32 32-32h352c17.664 0 32 14.336 32 32v208c26.464 0 48 21.536 48 48v16c0 10.336-3.408 20.56-9.6 28.8zM416 448v-64h-320v64h320zM163.088 240h-67.024l64 112h35.024l-32-112zM211.744 352h36.256v-112h-68.256l32 112zM264 352h36.256l32-112h-68.256v112zM316.88 352h35.024l64-112h-67.024l-32 112zM32 256v16c0 3.472 1.12 6.832 3.2 9.6l48 64c3.024 4.032 7.76 6.4 12.8 6.4h45.632l-64-112h-29.632c-8.832 0-16 7.152-16 16zM320 0h-120v160h120v-160zM432 0h-96v160c0 8.848-7.184 16-16 16h-120c-8.832 0-16-7.152-16-16v-160h-104v208h352v-208zM480 256c0-8.848-7.152-16-16-16h-29.664l-64 112h45.664c5.024 0 9.776-2.368 12.784-6.4l48-64c2.096-2.768 3.216-6.128 3.216-9.6v-16z" />
<glyph unicode="&#xe62d;" d="M469.808 405.808c56.256-56.224 56.256-147.408 0-203.632l-175.472-175.488c-6.256-6.272-16.368-6.272-22.624 0-6.288 6.256-6.288 16.352 0 22.624l173.216 173.232c43.744 43.744 43.744 114.624-0.032 158.384-43.68 43.744-114.624 43.744-158.368 0l-231.152-228.432c-31.248-31.232-31.248-81.888 0-113.12 31.248-31.248 81.872-31.248 113.12 0l233.44 230.672c18.72 18.72 18.72 49.168 0 67.888-18.72 18.704-49.152 18.704-67.872 0l-175.504-175.504c-6.256-6.256-16.368-6.256-22.624 0-6.256 6.272-6.256 16.368 0 22.64l175.488 175.488c31.216 31.232 81.872 31.232 113.12 0 31.248-31.248 31.248-81.888 0-113.136l-233.44-230.688c-43.648-43.664-114.704-43.664-158.368 0s-43.664 114.736 0 158.4l233.44 230.672c56.224 56.256 147.408 56.256 203.632 0z" />
<glyph unicode="&#xe62e;" d="M352 336c-0.992-42.8-33.12-78.944-33.12-78.944 0 79.616-62.88 142.944-62.88 142.944s-0.848-47.392-32.688-95.168c-31.84 111.472-127.392 175.168-127.392 175.168 47.776-175.168-15.92-238.88-15.92-366.272 0-74.736 63.264-145.728 160-145.728 143.312 0 171.024 52.608 185.84 111.888 20.416 81.616-10.16 176.496-73.84 256.112zM394.816 87.664c-10.288-41.104-21.904-87.664-154.816-87.664-80.128 0-128 57.824-128 113.728 0 42.816 7.808 77.968 16.064 115.184 10.496 47.184 21.248 95.488 16.592 159.376 49.344-68.304 66.912-158.8 66.912-158.8s45.936 64.496 58.288 94.448c9.456-19.248 18.144-83.936 18.144-147.936 0 0 42.496 35.008 74.368 87.648 33.568-60.192 45.664-123.12 32.448-175.984zM358.912 211.28l2.976-16.56c6.656-37.088 2.928-80.928-9.472-111.712-1.248-3.12-4.256-5.008-7.408-5.008-1.008 0-2.032 0.192-3.008 0.576-4.096 1.648-6.096 6.304-4.432 10.4 9.344 23.184 13.28 55.824 10.784 85.648-16.064-17.952-36.304-36.656-79.552-57.2l-8.096-3.824-2.912 8.448c-5.792 16.8-11.632 33.776-14.16 57.44-8.656-13.648-16.56-25.808-29.84-43.888l-8.128-11.072-5.632 12.544c-13.776 30.8-24.272 54.848-32.592 76-7.696-24.72-13.44-53.312-13.44-111.056 0-4.416-3.6-8-8-8-4.432 0-8 3.584-8 8 0 75.344 10 104.368 20.56 135.104l8.32 24.16 7.664-21.6c8.24-23.216 19.088-48.8 34.432-83.392 10.112 14.288 16.896 25.040 25.088 38.016l24.288 38.048v-27.344c0-30.784 5.536-50.896 11.632-69.168 42.544 21.408 58.48 40.032 75.328 59.68l13.6 15.76z" />
<glyph unicode="&#xe62f;" d="M500 376.992l-80 64c-5.68 4.544-12.752 7.008-20 7.008h-288c-7.264 0-14.32-2.464-20-7.008l-80-64c-10.464-8.384-14.592-22.4-10.352-35.12l32-96c3.152-9.456 10.544-16.912 19.984-20.144 3.36-1.152 6.88-1.728 10.368-1.728 5.568 0 11.088 1.456 16 4.288v-196.288c0-17.664 14.336-32 32-32h288c17.664 0 32 14.336 32 32v196.288c4.912-2.832 10.432-4.288 16-4.288 3.504 0 7.008 0.576 10.368 1.728 9.44 3.232 16.816 10.688 19.968 20.144l32 96c4.256 12.72 0.128 26.736-10.336 35.12zM316.064 416c-8.848-18.576-32.288-32-60.064-32s-51.232 13.424-60.064 32h120.128zM448 256l-48 32v-256h-288v256l-48-32-32 96 80 64h66.832c8.912-27.552 39.936-48 77.168-48 37.216 0 68.256 20.448 77.152 48h66.848l80-64-32-96z" />
<glyph unicode="&#xe630;" d="M278.5 185q-9-9-22.5-9t-22.5 9l-224 226q-9.5 9.5-9.5 23t9.5 22.5l13 14q9.5 9.5 22.75 9.5t22.75-9.5l188-189.5 188 189.5q9.5 9.5 22.75 9.5t22.75-9.5l13-14q9.5-9 9.5-22.5t-9.5-23zM22.5 262.5q9.5 9.5 22.75 9.5t22.75-9.5l188-189.5 188 189.5q9.5 9.5 22.75 9.5t22.75-9.5l13-13.5q9.5-9.5 9.5-22.75t-9.5-22.75l-224-226q-9-9.5-22.5-9.5t-22.5 9.5l-224 226q-9.5 9.5-9.5 22.75t9.5 22.75z" />
<glyph unicode="&#xe631;" d="M233.5 262.5q9 9.5 22.5 9.5t22.5-9.5l224-225.5q9.5-9.5 9.5-23t-9.5-23l-13-13.5q-9.5-9.5-22.75-9.5t-22.75 9.5l-188 189.5-188-189.5q-9.5-9.5-22.75-9.5t-22.75 9.5l-13 13.5q-9.5 9.5-9.5 23t9.5 23zM489.5 185q-9.5-9.5-22.75-9.5t-22.75 9.5l-188 190-188-190q-9.5-9.5-22.75-9.5t-22.75 9.5l-13 14q-9.5 9.5-9.5 22.75t9.5 22.75l224 226q9 9.5 22.5 9.5t22.5-9.5l224-226q9.5-9.5 9.5-22.75t-9.5-22.75z" />
<glyph unicode="&#xe632;" d="M294.5 246.5q9.5-9 9.5-22.25t-9.5-22.75l-225.5-224q-9.5-9.5-23-9.5t-23 9.5l-13.5 13.5q-9.5 9-9.5 22.25t9.5 22.75l189.5 188-189.5 188q-9.5 9.5-9.5 22.75t9.5 22.75l13.5 13q9.5 9.5 23 9.5t23-9.5zM217.5-9q-9.5 9-9.5 22.25t9.5 22.75l189.5 188-189.5 188q-9.5 9.5-9.5 22.75t9.5 22.75l13.5 13q9.5 9.5 22.75 9.5t22.75-9.5l226-224q9.5-9 9.5-22.25t-9.5-22.75l-226-224q-9.5-9.5-22.75-9.5t-22.75 9.5z" />
<glyph unicode="&#xe633;" d="M217.5 246.5q-9.5-9-9.5-22.25t9.5-22.75l225.5-224q9.5-9.5 23-9.5t23 9.5l13.5 13.5q9.5 9 9.5 22.25t-9.5 22.75l-189.5 188 189.5 188q9.5 9.5 9.5 22.75t-9.5 22.75l-13.5 13q-9.5 9.5-23 9.5t-23-9.5zM294.5-9q9.5 9 9.5 22.25t-9.5 22.75l-189.5 188 189.5 188q9.5 9.5 9.5 22.75t-9.5 22.75l-13.5 13q-9.5 9.5-22.75 9.5t-22.75-9.5l-226-224q-9.5-9-9.5-22.25t9.5-22.75l226-224q9.5-9.5 22.75-9.5t22.75 9.5z" />
<glyph unicode="&#xe644;" d="M256 432c-114.88 0-208-93.12-208-208s93.12-208 208-208 208 93.12 208 208-93.12 208-208 208zM256 48c-97.2 0-176 78.8-176 176s78.8 176 176 176 176-78.8 176-176-78.8-176-176-176zM234.432 291.664c-10.784 11.824-23.728 17.728-38.896 17.728-15.52 0-28.32-5.376-38.352-16.144-4.048-4.416-7.28-9.616-9.664-15.616-2.368-6-3.568-12.096-3.568-18.256 0-12.704 3.584-23.52 10.72-32.432 7.152-8.912 16.464-14.24 27.952-16l3.984-0.256 3.44-0.544c5.296-0.704 7.952-2.736 7.952-6.080 0-3.536-3.536-9.088-10.608-16.672-7.424-8.112-19.168-16.336-35.248-24.608-6.72-3.536-10.064-7.936-10.064-13.232 0-3.36 1.136-6.144 3.44-8.336 2.288-2.208 5.2-3.296 8.736-3.296 8.816 0 20.992 5.104 36.512 15.344 18.336 12 32.992 26.592 43.92 43.808 10.944 17.184 16.4 34.176 16.4 50.944 0 7.936-1.504 15.824-4.496 23.68-2.992 7.84-7.056 14.496-12.16 19.968zM360.368 291.664c-10.72 11.824-23.568 17.728-38.528 17.728-15.664 0-28.432-5.376-38.288-16.144-4.064-4.416-7.264-9.664-9.648-15.744-2.384-6.096-3.568-12.128-3.568-18.128 0-12.704 3.52-23.568 10.544-32.56s16.288-14.288 27.712-15.872l4.224-0.256 3.152-0.544c5.28-0.704 7.92-2.736 7.92-6.080 0-3.536-3.44-9.088-10.304-16.672-7.216-7.76-18.928-15.968-35.104-24.608-6.704-3.536-10.048-7.936-10.048-13.232 0-3.36 1.152-6.144 3.44-8.336 2.304-2.208 5.2-3.296 8.72-3.296 8.8 0 20.96 5.104 36.432 15.344 18.32 12 32.896 26.592 43.712 43.808 10.816 17.184 16.24 34.176 16.24 50.944 0 7.936-1.488 15.824-4.48 23.68-2.96 7.84-7.008 14.496-12.128 19.968z" />
<glyph unicode="&#xe645;" d="M256 432c-114.88 0-208-93.12-208-208s93.12-208 208-208 208 93.12 208 208-93.12 208-208 208zM256 48c-97.2 0-176 78.8-176 176s78.8 176 176 176 176-78.8 176-176-78.8-176-176-176zM233.472 285.216c6.704 3.536 10.048 7.952 10.048 13.248 0 3.344-1.136 6.128-3.424 8.336-2.304 2.208-5.2 3.312-8.72 3.312-8.816 0-20.96-5.12-36.448-15.344-18.32-12-32.88-26.592-43.696-43.792-10.816-17.2-16.24-34.192-16.24-50.96 0-7.936 1.504-15.824 4.496-23.68 2.992-7.84 7.040-14.496 12.144-19.984 10.736-11.824 23.584-17.728 38.544-17.728 15.664 0 28.432 5.392 38.288 16.16 4.048 4.4 7.248 9.664 9.648 15.744 2.368 6.096 3.568 12.128 3.568 18.128 0 12.704-3.52 23.552-10.544 32.56s-16.288 14.288-27.712 15.872l-4.224 0.256-3.168 0.544c-5.264 0.704-7.92 2.736-7.92 6.080 0 3.536 3.44 9.088 10.32 16.672 7.168 7.728 18.848 15.936 35.040 24.576zM359.84 285.216c6.72 3.536 10.064 7.952 10.064 13.248 0 3.344-1.136 6.128-3.44 8.336-2.288 2.208-5.2 3.312-8.736 3.312-8.816 0-20.992-5.12-36.512-15.344-18.336-12-32.976-26.592-43.904-43.792s-16.4-34.192-16.4-50.96c0-7.936 1.504-15.824 4.496-23.68 3.008-7.84 7.040-14.496 12.16-19.984 10.768-11.824 23.712-17.728 38.88-17.728 15.536 0 28.32 5.392 38.368 16.16 4.048 4.4 7.28 9.616 9.664 15.616 2.368 6.016 3.568 12.096 3.568 18.272 0 12.704-3.584 23.504-10.72 32.416-7.152 8.912-16.464 14.24-27.952 16l-3.984 0.256-3.44 0.544c-5.28 0.704-7.936 2.736-7.936 6.080 0 3.536 3.536 9.088 10.592 16.672 7.408 8.096 19.152 16.288 35.232 24.576z" />
<glyph unicode="&#xe646;" d="M438.32 222.208l-195.6 194.256h-178.256l-0.416-178.032 193.248-197.264c12.704-12.704 33.136-12.88 45.648-0.368l135.744 135.76c12.496 12.496 12.336 32.944-0.368 45.648zM111.712 335.936c0 17.664 14.336 32 32 32s32-14.336 32-32c0-17.68-14.336-32-32-32s-32 14.32-32 32zM285.808 112.768l-124.448 124.448 11.312 11.312 124.448-124.448-11.312-11.312zM319.744 146.704l-124.448 124.448 11.328 11.312 124.432-124.448-11.312-11.312zM353.68 180.656l-124.432 124.448 11.312 11.312 124.432-124.448-11.312-11.312z" />
<glyph unicode="&#xe647;" d="M462.528 166.784l-148.976-148.976c-12.656-12.656-33.184-12.656-45.84 0l-182.624 182.64-45.12 139.664 32.96 32.96 63.152-63.152c-1.696-12.16 1.984-24.912 11.328-34.256 15.824-15.824 41.472-15.824 57.296 0 15.808 15.824 15.808 41.472 0 57.296-9.344 9.344-22.096 13.008-34.256 11.328l-63.152 63.152 32.224 32.24 140.384-44.4 182.624-182.64c12.656-12.672 12.656-33.184 0-45.856zM181.776 298.576c-3.168-3.168-8.288-3.168-11.456 0l-126.064 126.064c-3.168 3.168-3.168 8.304 0 11.456s8.304 3.168 11.456 0l126.048-126.048c3.184-3.168 3.184-8.304 0.016-11.472z" />
<glyph unicode="&#xe648;" d="M405.28 322.56l-56-96.992c-8.848-15.296-28.4-20.544-43.712-11.696l-13.84 8 16 27.696c7.648-4.4 17.44-1.792 21.84 5.856l40 69.28c4.416 7.664 1.792 17.44-5.84 21.856l-55.44 32c-7.664 4.416-17.44 1.792-21.84-5.856l-40-69.28c-4.432-7.664-1.808-17.44 5.84-21.856l-16-27.696-13.84 8c-15.312 8.832-20.56 28.4-11.712 43.696l56 96.992c8.848 15.312 28.4 20.544 43.712 11.712l83.12-48c15.312-8.832 20.56-28.4 11.712-43.712zM216 154.72c-7.664 4.416-10.288 14.208-5.856 21.856l64 110.848c4.416 7.664 14.208 10.288 21.856 5.856s10.288-14.208 5.84-21.856l-64-110.848c-4.4-7.648-14.176-10.256-21.84-5.856zM204.288 198.416v0c-7.664 4.416-17.44 1.792-21.856-5.84l-40-69.28c-4.416-7.664-1.792-17.44 5.856-21.856l55.44-32c7.648-4.416 17.44-1.792 21.84 5.856l40 69.28c4.416 7.648 1.792 17.44-5.84 21.856v0l16 27.696 13.84-8c15.312-8.832 20.56-28.384 11.712-43.696l-56-96.992c-8.848-15.312-28.4-20.544-43.712-11.712l-83.136 48c-15.312 8.848-20.56 28.4-11.712 43.712l56 96.992c8.848 15.312 28.416 20.56 43.728 11.712l13.84-8-16-27.728z" />
<glyph unicode="&#xe649;" d="M225.936 379.92l-120-207.84c-6.624-11.488 15.712-36.784 15.712-36.784l144 249.408c0 0-33.088 6.704-39.712-4.784zM264 237.856c11.472-6.624 26.16-2.688 32.784 8.784l64 110.848c6.624 11.488 2.688 26.16-8.784 32.8-11.472 6.624-26.16 2.688-32.784-8.784l-64-110.848c-6.624-11.488-2.688-26.176 8.784-32.8zM248 210.144c-11.488 6.624-26.16 2.688-32.784-8.784l-64-110.864c-6.624-11.472-2.704-26.16 8.784-32.784 11.472-6.624 26.16-2.688 32.784 8.784l64 110.864c6.624 11.488 2.688 26.16-8.784 32.784zM390.336 312.704l-144-249.408c0 0 33.088-6.704 39.712 4.784l120 207.84c6.64 11.488-15.712 36.784-15.712 36.784z" />
<glyph unicode="&#xe64a;" d="M80 0v384l66.672 64h202.672l66.656-64v-384h-336zM400 128v240h-304v-352h304v112zM384 256h-272v96h272v-96zM288 320h-80v-16h80v16zM384 144h-272v96h272v-96zM288 208h-80v-16h80v16zM384 32h-272v96h272v-96zM288 96h-80v-16h80v16z" />
<glyph unicode="&#xe64b;" d="M80-16v400l66.672 64h202.672l66.656-64v-400h-336zM96 0h304v368h-304v-368zM112 176h272v-160h-272v160zM208 112v-16h80v48h-16v-32h-48v32h-16v-32zM112 352h272v-160h-272v160zM208 272h80v48h-16v-32h-48v32h-16v-48z" />
<glyph unicode="&#xe64c;" d="M432-16h-352c-17.664 0-32 14.336-32 32v352c0 17.68 14.336 32 32 32h32v-16c0-26.512 21.488-48 48-48 26.496 0 48 21.488 48 48v16h96v-16c0-26.512 21.504-48 48-48s48 21.488 48 48v16h32c17.664 0 32-14.32 32-32v-352c0-17.664-14.336-32-32-32zM432 288h-352v-272h352v272zM160 208h-48v48h48v-48zM160 128h-48v48h48v-48zM160 48h-48v48h48v-48zM240 208h-48v48h48v-48zM240 128h-48v48h48v-48zM240 48h-48v48h48v-48zM320 208h-48v48h48v-48zM320 128h-48v48h48v-48zM320 48h-48v48h48v-48zM400 208h-48v48h48v-48zM400 128h-48v48h48v-48zM400 48h-48v48h48v-48zM351.504 352c-17.408 0-31.504 14.112-31.504 31.504v32.992c0 17.408 14.096 31.504 31.504 31.504s31.504-14.096 31.504-31.504v-32.992c0-17.392-14.096-31.504-31.504-31.504zM159.504 352c-17.408 0-31.504 14.112-31.504 31.504v32.992c0 17.408 14.096 31.504 31.504 31.504s31.504-14.096 31.504-31.504v-32.992c0-17.392-14.112-31.504-31.504-31.504z" />
<glyph unicode="&#xe64d;" d="M448 0h-384c-17.664 0-32 14.336-32 32v336c0 17.664 14.336 32 32 32h32v-16c0-26.512 21.488-48 48-48s48 21.488 48 48v16h128v-16c0-26.512 21.504-48 48-48s48 21.488 48 48v16h32c17.664 0 32-14.336 32-32v-336c0-17.664-14.336-32-32-32zM448 288h-384v-256h384v256zM209.104 162.736c3.152 5.024 4.736 10.336 4.736 15.888 0 12.368-6.656 18.56-19.968 18.56-11.568 0-22.624-4.592-33.184-13.776v26.064c11.68 7.568 24.88 11.344 39.568 11.344 13.744 0 24.48-3.456 32.208-10.352s11.584-16.24 11.584-27.984c0-15.68-9.408-31.904-28.224-48.656l-27.664-24.56v-0.56h54.56v-24.56h-88.496v23.056l38.528 36.848c7.744 7.424 13.2 13.648 16.352 18.688zM317.392 109.344c4.224 3.248 6.336 7.776 6.336 13.6 0 6-2.608 10.624-7.824 13.872s-12.384 4.88-21.52 4.88h-12.096v22.688h11.152c17.504 0 26.256 5.808 26.256 17.44 0 10.944-6.72 16.4-20.16 16.4-8.992 0-17.744-2.912-26.256-8.72v24.192c9.44 4.752 20.432 7.12 32.992 7.12 13.744 0 24.448-3.088 32.112-9.28s11.488-14.224 11.488-24.096c0-17.568-8.912-28.56-26.72-32.992v-0.464c9.504-1.184 16.992-4.64 22.496-10.352s8.256-12.736 8.256-21.040c0-12.56-4.592-22.496-13.776-29.808s-21.872-10.976-38.064-10.976c-13.872 0-25.152 2.256-33.84 6.752v25.776c8.992-6.56 19.504-9.84 31.504-9.84 7.552-0.032 13.44 1.6 17.664 4.848zM367.504 352c-17.408 0-31.504 14.096-31.504 31.504v32.992c0 17.408 14.096 31.504 31.504 31.504s31.504-14.096 31.504-31.504v-32.992c0-17.408-14.096-31.504-31.504-31.504zM143.504 352c-17.408 0-31.504 14.096-31.504 31.504v32.992c0 17.408 14.096 31.504 31.504 31.504s31.504-14.096 31.504-31.504v-32.992c0-17.408-14.112-31.504-31.504-31.504z" />
<glyph unicode="&#xe64e;" d="M176 432h-32v-64h32v64zM352 352h-32v-32h32v32zM176 352h-32v-32h32v32zM367.008 384l0.992-80h-64v80h-112v-80h-64v80h-48v-384h336v384h-48.992zM176 48.992h-48v48h48v-48zM176 112.992h-48v48h48v-48zM176 176.992h-48v48h48v-48zM240 48.992h-48v48h48v-48zM240 112.992h-48v48h48v-48zM240 176.992h-48v48h48v-48zM304 48.992h-48v48h48v-48zM304 112.992h-48v48h48v-48zM304 176.992h-48v48h48v-48zM368 48.992h-48v48h48v-48zM368 112.992h-48v48h48v-48zM368 176.992h-48v48h48v-48zM352 432h-32v-64h32v64z" />
<glyph unicode="&#xe64f;" d="M335.008 415.504h-223.008v-383.008h160v32h-128v319.008h160v-48h64v-176h32v192.992l-64.992 63.008zM368 127.504h-32v-32h-32v-32h32v-31.008h32v32h32v31.008h-32v32z" />
<glyph unicode="&#xe650;" d="M335.008 415.504h-223.008v-383.008h160v32h-128v319.008h160v-48h64v-176h32v192.992l-64.992 63.008zM304 79.504l96 0.992v31.008h-96v-32z" />
<glyph unicode="&#xe651;" d="M176 240h16v16h-16v-16zM176 192h16v16h-16v-16zM176 288h16v16h-16v-16zM176 144h16v16h-16v-16zM176 96h16v16h-16v-16zM208 192h128v16h-128v-16zM208 288h128v16h-128v-16zM335.008 416h-223.008v-384h288v320l-64.992 64zM368 64.992h-224v319.008h160v-47.008h64v-272zM208 144h128v16h-128v-16zM208 240h128v16h-128v-16zM208 96h128v16h-128v-16z" />
<glyph unicode="&#xe652;" d="M271.744 223.248h-128v-14.496h128v14.496zM271.744 175.248h-128v-15.504h128v15.504zM192.256 415.744v-48.256h-48.512v-48.256h-47.248v-303.008h223.504v48.496h47.248v47.008h48.256v304h-223.248zM304.496 31.744h-192.496v273.008h192.496v-273.008zM351.744 79.248h-31.744v240h-160.752v32.752h192.496v-272.752zM400 127.248h-32.752v240.256h-159.504v32.752h192.256v-273.008zM271.744 79.504h-128v-15.504h128v15.504zM271.744 127.744h-128v-15.504h128v15.504zM271.984 271.744h-128v-16h128v16z" />
<glyph unicode="&#xe653;" d="M351.984 416h-192c-17.664 0-31.984-14.336-31.984-32v-320c0-17.664 14.32-32 31.984-32h192c17.68 0 32.016 14.336 32.016 32v320c0 17.664-14.336 32-32.016 32zM208 400h80l0.992-16h-80.992v16zM255.664 56c-8.832 0-16 7.152-16 16s7.168 16 16 16c8.848 0 16-7.152 16-16s-7.168-16-16-16zM351.984 112h-192l0.336 256h191.664v-256z" />
<glyph unicode="&#xe654;" d="M368.016 416h-240c-17.68 0-32.016-14.336-32.016-32v-320c0-17.664 14.336-32 32.016-32h240c17.664 0 31.984 14.336 31.984 32v320c0 17.664-14.32 32-31.984 32zM248 48c-8.832 0-15.984 7.152-15.984 16s7.152 16 15.984 16c8.848 0 16.016-7.152 16.016-16s-7.168-16-16.016-16zM367.856 96.992h-240.416v286.592h240.416v-286.592z" />
<glyph unicode="&#xe655;" d="M448 416h-384c-17.68 0-32-14.336-32-32v-320c0-17.664 14.32-32 32-32h384c17.664 0 32 14.336 32 32v320c0 17.664-14.336 32-32 32zM184.992 392c8.832 0 15.984-7.168 15.984-16s-7.152-16-15.984-16c-8.848 0-16 7.168-16 16s7.168 16 16 16zM136 392c8.832 0 16-7.168 16-16s-7.168-16-16-16c-8.848 0-16 7.168-16 16s7.152 16 16 16zM87.984 392c8.848 0 16-7.168 16-16s-7.152-16-16-16c-8.832 0-15.984 7.168-15.984 16s7.152 16 15.984 16zM448 64h-384v271.664h384v-271.664zM448 367.664h-224v16h224v-16z" />
<glyph unicode="&#xe656;" d="M272 80.992h-48v-24.992l-48-8v-16h143.008v15.008l-47.008 8.992v24.992zM432 416h-368c-17.68 0-32-14.32-32-32v-224c0-17.664 14.32-32 32-32h368c17.68 0 32 14.336 32 32v224c0 17.68-14.32 32-32 32zM246 152c-8.832 0-16 7.168-16 16 0 8.848 7.168 16 16 16 8.848 0 16-7.152 16-16 0-8.832-7.168-16-16-16zM432 208h-368v176h368v-176z" />
<glyph unicode="&#xe657;" d="M352 416h-192c-17.68 0-32-14.336-32-32v-320c0-17.664 14.32-32 32-32h192c17.664 0 32 14.336 32 32v320c0 17.664-14.336 32-32 32zM256 64c-30.944 0-56 25.072-56 56 0 30.944 25.056 56 56 56 30.928 0 56-25.056 56-56 0-30.928-25.072-56-56-56zM352 208h-192l0.336 176h191.664v-176zM256 152c-17.664 0-32-14.336-32-32s14.336-32 32-32 32 14.336 32 32-14.336 32-32 32z" />
<glyph unicode="&#xe658;" d="M448.24 16.896h-32.784v-16.896h-48.688v16.896h-222.528v-16.896h-48.688l0.016 16.896h-31.808c-17.568 0-31.792 14.24-31.792 31.792v302.992c0 17.552 14.24 31.792 31.792 31.792h111.264c0 0 7.008 9.728 19.824 18.592l-40.848 40.864 11.248 11.232 44.080-44.064c8.384 3.6 18.096 6.16 29.28 6.16 11.888 0 21.968-2.928 30.56-6.88l44.784 44.784 11.232-11.232-41.824-41.84c11.664-8.592 17.84-17.632 17.84-17.632h147.024c17.568 0 31.792-14.24 31.792-31.792v-302.992c0.016-17.552-14.224-31.776-31.776-31.776zM334.992 319.888c0 8.784-7.12 15.888-15.904 15.888h-222.528c-8.784 0-15.904-7.104-15.904-15.888v-239.424c0-8.784 7.12-15.888 15.904-15.888h222.512c8.784 0 15.904 7.104 15.904 15.888v239.424zM384.672 64.576h46.672v15.888h-46.672v-15.888zM384.672 96.368h46.672v15.872h-46.672v-15.872zM384.672 129.152h46.672v15.888h-46.672v-15.888zM384.672 160.944h46.672v15.904h-46.672v-15.904zM406.896 335.392c-13.152 0-23.84-10.672-23.84-23.84s10.688-23.84 23.84-23.84c13.168 0 23.84 10.672 23.84 23.84s-10.672 23.84-23.84 23.84zM406.896 272c-13.152 0-23.84-10.656-23.84-23.824s10.688-23.84 23.84-23.84c13.168 0 23.84 10.672 23.84 23.84s-10.672 23.824-23.84 23.824z" />
<glyph unicode="&#xe659;" d="M448 368l-240.064-0.272 0.064 47.28-128 0.992v-48h-32c-17.664 0-32-14.336-32-32v-272c0-17.664 14.336-32 32-32h400c17.664 0 32 14.336 32 32v272c0 17.664-14.336 32-32 32zM112 384h64v-48h-64v48zM192 80.672c-61.856 0-112 50.144-112 112s50.144 112 112 112c61.84 0 112-50.144 112-112 0-61.856-50.16-112-112-112zM408 263.664c-17.68 0-32 14.32-32 32 0 17.664 14.32 32 32 32 17.664 0 32-14.336 32-32 0-17.664-14.336-32-32-32zM192 262c-39.76 0-72-32.24-72-72s32.24-72 72-72 72 32.24 72 72-32.24 72-72 72z" />
<glyph unicode="&#xe65a;" d="M448 352h-95.008c0 0-0.992 1.904-0.992 24s-17.904 40-40 40h-128c-22.096 0-40-17.904-40-40s0.992-24 0.992-24h-96.992c-17.664 0-32-14.336-32-32v-256c0-17.664 14.336-32 32-32h400c17.664 0 32 14.336 32 32v256c0 17.664-14.336 32-32 32zM248.72 96.432c-53.024 0-96 42.976-96 96 0 53.008 42.976 96 96 96 53.008 0 96-42.976 96-96 0-53.024-42.992-96-96-96z" />
<glyph unicode="&#xe65b;" d="M432 207.248l-80 32.048v64.128l80 32.064c8.848 0 16-7.184 16-16.032v-96.192c0-8.848-7.152-16.016-16-16.016zM280 319.472c-39.76 0-72 32.304-72 72.144s32.24 72.144 72 72.144 72-32.304 72-72.144c0-39.856-32.24-72.144-72-72.144zM136 319.472c-39.76 0-72 32.304-72 72.144s32.24 72.144 72 72.144 72-32.304 72-72.144c0-39.856-32.24-72.144-72-72.144zM336 319.472v-144.288h-89.312c-0.832-13.312-6.656-24.784-15.312-31.28h9.024l63.824-143.936h-15.904l-21.28 48h-42.56v-79.968h-15.952v79.968h-43.232l-21.616-48h-15.92l64.832 143.936h6.032c-8.656 6.496-14.48 17.968-15.312 31.28h-103.312v144.288h256zM208.512 138.944c-0.656 0.16-1.264 0.496-1.904 0.72l-34.112-75.712h36.016v74.992zM224.464 140.096v-76.16h35.472l-34.016 76.72c-0.464-0.224-0.944-0.368-1.456-0.56z" />
<glyph unicode="&#xe65c;" d="M485.36 56.88c-2.048 3.536-8.608 4.624-19.696 3.232-20.4-2.64-35.216 4.016-44.448 20.016-6.992 12.096-8.8 24.256-5.424 36.48s13.376 29.664 29.984 52.352l10.384 14.464c30.848 42.608 37.168 79.664 18.976 111.2-18.512 32.096-72 29.392-110.448 12.896-31.104 64.144-96.64 108.48-172.688 108.48-106.048 0-192-85.968-192-192 0-106.032 85.952-192 192-192 106.032 0 192 85.968 192 192 0 23.504-4.432 45.936-12.16 66.736 12.976 4.656 28.496 8.032 43.136 8.576 19.232 0.704 36.64-3.328 43.552-15.296 15.408-26.704 7.968-58.256-22.32-94.608l-6.208-7.456c-35.424-42.512-43.888-79.744-25.456-111.712 7.456-12.896 19.312-22.096 35.6-27.632 16.288-5.52 30.064-4.992 41.36 1.536 5.6 3.232 6.896 7.488 3.856 12.736zM104 183.008c-22.096 0-40 17.904-40 40 0 22.080 17.904 40 40 40s40-17.904 40-40c0-22.096-17.904-40-40-40zM192 95.008c-22.096 0-40 17.904-40 40s17.904 40 40 40 40-17.904 40-40-17.904-40-40-40zM176.32 223.008c0 8.832 7.184 16 16.016 16s16-7.152 16-16c0-8.848-7.168-16-16-16s-16.016 7.152-16.016 16zM192 271.008c-22.096 0-40 17.904-40 40 0 22.080 17.904 40 40 40s40-17.904 40-40c0-22.096-17.904-40-40-40zM280 183.008c-22.096 0-40 17.904-40 40 0 22.080 17.904 40 40 40s40-17.904 40-40c0-22.096-17.904-40-40-40z" />
<glyph unicode="&#xe65d;" d="M64 384v-352h352v352h-352zM128 64h-32v32h32v-32zM128 112h-32v32h32v-32zM128 160h-32v32h32v-32zM128 224h-32v32h32v-32zM128 272h-32v32h32v-32zM128 320h-32v32h32v-32zM320 64h-160v128h160v-128zM320 224h-160v128h160v-128zM384 64h-32v32h32v-32zM384 112h-32v32h32v-32zM384 160h-32v32h32v-32zM384 224h-32v32h32v-32zM384 272h-32v32h32v-32zM384 320h-32v32h32v-32z" />
<glyph unicode="&#xe65e;" d="M384 208c-17.68 0-32-14.32-32-32v-64h-80v224h176v-128h-64zM304 320h-16v-32h16v32zM304 160h-16v-32h16v32zM336 320h-16v-32h16v32zM336 160h-16v-32h16v32zM368 320h-16v-32h16v32zM400 320h-16v-32h16v32zM432 320h-16v-32h16v32zM64 384h208v-32h-208v32zM256 336v-224h-176v224h176zM272 64h-208v32h208v-32z" />
<glyph unicode="&#xe65f;" d="M368 183.424v23.888h-15.936v-23.888c0-57.184-47.344-103.552-104.528-103.568h-0.064c-57.184 0.016-103.536 46.368-103.536 103.568v23.888h-15.936v-23.888c0-60.208 44.656-109.504 102.56-117.792v-48.336c-45.376-3.424-79.664-18.784-79.664-33.024 0-0.368 196.512-0.368 196.512 0 0 14.784-37.056 30.656-84.976 33.248v47.92c58.864 7.408 105.568 57.088 105.568 117.984zM247.488 96.784c48.4 0 88.64 39.248 88.64 87.648v22.896h-176.288v-22.896c0-48.4 39.248-87.648 87.648-87.648zM336.128 360.4c0 48.4-40.24 87.632-88.64 87.632-48.384 0-87.648-39.232-87.648-87.632v-137.152h176.288v137.152zM280 415.808c4.4 0 8-3.584 8-8s-3.6-8-8-8c-4.416 0-8 3.584-8 8s3.584 8 8 8zM248 415.808c4.4 0 8-3.584 8-8s-3.6-8-8-8c-4.416 0-8 3.584-8 8s3.584 8 8 8zM216 415.808c4.4 0 8-3.584 8-8s-3.6-8-8-8c-4.416 0-8 3.584-8 8s3.584 8 8 8zM184 239.808c-4.416 0-8 3.584-8 8s3.584 8 8 8c4.4 0 8-3.584 8-8s-3.6-8-8-8zM184 271.808c-4.416 0-8 3.584-8 8s3.584 8 8 8c4.4 0 8-3.584 8-8s-3.6-8-8-8zM184 303.808c-4.416 0-8 3.584-8 8s3.584 8 8 8c4.4 0 8-3.584 8-8 0-4.416-3.6-8-8-8zM184 335.808c-4.416 0-8 3.584-8 8s3.584 8 8 8c4.4 0 8-3.584 8-8s-3.6-8-8-8zM200 367.808c-4.416 0-8 3.584-8 8s3.584 8 8 8c4.4 0 8-3.584 8-8s-3.6-8-8-8zM216 239.808c-4.416 0-8 3.584-8 8s3.584 8 8 8c4.4 0 8-3.584 8-8s-3.6-8-8-8zM216 271.808c-4.416 0-8 3.584-8 8s3.584 8 8 8c4.4 0 8-3.584 8-8s-3.6-8-8-8zM216 303.808c-4.416 0-8 3.584-8 8s3.584 8 8 8c4.4 0 8-3.584 8-8 0-4.416-3.6-8-8-8zM216 335.808c-4.416 0-8 3.584-8 8s3.584 8 8 8c4.4 0 8-3.584 8-8s-3.6-8-8-8zM232 367.808c-4.416 0-8 3.584-8 8s3.584 8 8 8c4.4 0 8-3.584 8-8s-3.6-8-8-8zM248 239.808c-4.416 0-8 3.584-8 8s3.584 8 8 8c4.4 0 8-3.584 8-8s-3.6-8-8-8zM248 271.808c-4.416 0-8 3.584-8 8s3.584 8 8 8c4.4 0 8-3.584 8-8s-3.6-8-8-8zM248 303.808c-4.416 0-8 3.584-8 8s3.584 8 8 8c4.4 0 8-3.584 8-8 0-4.416-3.6-8-8-8zM248 335.808c-4.416 0-8 3.584-8 8s3.584 8 8 8c4.4 0 8-3.584 8-8s-3.6-8-8-8zM264 367.808c-4.416 0-8 3.584-8 8s3.584 8 8 8c4.4 0 8-3.584 8-8s-3.6-8-8-8zM280 239.808c-4.416 0-8 3.584-8 8s3.584 8 8 8c4.4 0 8-3.584 8-8s-3.6-8-8-8zM280 271.808c-4.416 0-8 3.584-8 8s3.584 8 8 8c4.4 0 8-3.584 8-8s-3.6-8-8-8zM280 303.808c-4.416 0-8 3.584-8 8s3.584 8 8 8c4.4 0 8-3.584 8-8 0-4.416-3.6-8-8-8zM280 335.808c-4.416 0-8 3.584-8 8s3.584 8 8 8c4.4 0 8-3.584 8-8s-3.6-8-8-8zM296 367.808c-4.416 0-8 3.584-8 8s3.584 8 8 8c4.4 0 8-3.584 8-8s-3.6-8-8-8zM312 239.808c-4.416 0-8 3.584-8 8s3.584 8 8 8c4.4 0 8-3.584 8-8s-3.6-8-8-8zM312 271.808c-4.416 0-8 3.584-8 8s3.584 8 8 8c4.4 0 8-3.584 8-8s-3.6-8-8-8zM312 303.808c-4.416 0-8 3.584-8 8s3.584 8 8 8c4.4 0 8-3.584 8-8 0-4.416-3.6-8-8-8zM312 335.808c-4.416 0-8 3.584-8 8s3.584 8 8 8c4.4 0 8-3.584 8-8s-3.6-8-8-8z" />
<glyph unicode="&#xe660;" d="M262.416 65.424v-47.92c47.92-2.592 84.992-18.464 84.992-33.248 0-0.368-196.512-0.368-196.512 0 0 14.256 34.304 29.616 79.664 33.024v48.336c-57.904 8.304-102.56 57.6-102.56 117.808v23.888h15.936v-23.888c0-57.184 46.352-103.552 103.536-103.568h0.064c57.184 0.016 104.528 46.368 104.528 103.568v23.888h15.936v-23.888c0-60.896-46.704-110.576-105.584-118zM247.488 96.784c-48.384 0-87.648 39.248-87.648 87.648v22.896h176.288v-22.896c0-48.4-40.256-87.648-88.64-87.648zM159.84 360.4c0 48.4 39.248 87.632 87.648 87.632s88.64-39.232 88.64-87.632v-137.152h-176.288v137.152z" />
<glyph unicode="&#xe661;" d="M262.4 65.024v-47.888c47.872-2.576 84.88-18.416 84.88-33.2 0-0.368-196.288-0.368-196.288 0 0 14.224 34.272 29.584 79.568 32.992v48.288c-57.824 8.288-102.432 57.552-102.432 117.664v24.88h15.92v-24.88c0-57.12 46.304-103.44 103.424-103.456h0.064c57.12 0.016 103.424 46.336 103.424 103.456v24.88h16.928v-24.88c-0.016-60.816-46.672-110.448-105.488-117.856zM248 96.72c-48.56 0-87.904 39.344-87.904 87.904v39.632h71.92v15.984h-71.92v15.984h71.92v15.968h-71.92v15.984h71.92v15.984h-71.92v15.984h71.92v15.984h-71.92v25.312c0 48.544 39.344 86.912 87.904 86.912 48.544 0 87.904-38.352 87.904-86.912v-25.312h-71.936v-15.984h71.936v-15.984h-71.936v-15.984h71.936v-15.984h-71.936v-15.968h71.936v-15.984h-71.936v-15.984h71.936v-39.632c0-48.56-39.36-87.904-87.904-87.904z" />
<glyph unicode="&#xe662;" d="M368.88 337.504c8.912 0 16.128-7.216 16.128-16.128l-29.232-321.488c0-8.912-7.216-16.128-16.128-16.128h-167.312c-8.912 0-16.128 7.216-16.128 16.128l-29.2 321.488c0 8.912 7.216 16.128 16.128 16.128h144.16l17.056 86.976 77.424 39.76-5.568-20.768-57.472-28.816-15.008-77.152h65.152zM280.224 224.624h64.464l-18.144-208.608h-141.088l-18.144 208.608h96.464l20.144 96.752h-140.8l29.216-321.488h167.296l29.232 321.488h-68.512l-20.128-96.752z" />
<glyph unicode="&#xe663;" d="M391.392 336.304h-287.504l0.288 30.944h22.976l48.624 47.92h145.744l47.632-47.92h22.976l-0.736-30.944zM272.592 383.216h-47.92v-15.968h47.92v15.968zM365.712 207.52h-54.032c-11.92 23.216-35.824 39.264-63.712 39.264s-51.792-16.048-63.696-39.264h-53.088l-10.336 111.808h255.568l-10.704-111.808zM208.704 175.584c0 22.048 17.872 39.936 39.936 39.936 22.048 0 39.92-17.888 39.92-39.936s-17.872-39.936-39.92-39.936c-22.064 0-39.936 17.888-39.936 39.936zM247.968 103.024c28.704 0 53.28 16.944 64.8 41.264h46.896l-12.192-127.456h-198.656l-11.776 127.456h46.144c11.52-24.32 36.080-41.264 64.784-41.264z" />
<glyph unicode="&#xe664;" d="M256 16c-114.88 0-208 93.12-208 208s93.12 208 208 208 208-93.12 208-208-93.12-208-208-208zM351.376 284.656c3.904 3.904 3.904 10.256 0 14.16l-21.248 21.232c-3.904 3.904-10.256 3.904-14.16 0l-60.176-60.176-60.176 60.176c-3.904 3.904-10.256 3.904-14.16 0l-21.248-21.232c-3.904-3.904-3.904-10.256 0-14.16l60.192-60.192-60.192-60.16c-3.904-3.904-3.904-10.256 0-14.16l21.248-21.248c3.904-3.904 10.256-3.904 14.16 0l60.176 60.192 60.176-60.192c3.904-3.904 10.256-3.904 14.16 0l21.248 21.248c3.904 3.904 3.904 10.256 0 14.16l-60.192 60.16 60.192 60.192z" />
<glyph unicode="&#xe665;" d="M256 16c-114.88 0-208 93.12-208 208s93.12 208 208 208 208-93.12 208-208-93.12-208-208-208zM256 384c-88.352 0-160-71.648-160-160s71.648-160 160-160c88.368 0 160 71.648 160 160s-71.632 160-160 160zM328.592 167.44l-16.224-16.224c-2.976-2.976-7.808-2.976-10.8 0l-45.92 45.92-45.92-45.92c-2.992-2.976-7.808-2.976-10.8 0l-16.224 16.224c-2.976 2.976-2.976 7.808 0 10.8l45.936 45.904-45.936 45.92c-2.976 2.992-2.976 7.824 0 10.816l16.224 16.208c2.992 2.992 7.808 2.992 10.8 0l45.92-45.92 45.92 45.92c2.992 2.992 7.824 2.992 10.8 0l16.224-16.208c2.976-2.992 2.976-7.824 0-10.816l-45.936-45.92 45.936-45.904c2.976-2.992 2.976-7.84 0-10.8z" />
<glyph unicode="&#xe666;" d="M248 8c-114.88 0-208 93.12-208 208s93.12 208 208 208 208-93.12 208-208-93.12-208-208-208zM351.008 224.992c0 8.832-7.168 16-16 16h-64v64c0 8.832-7.152 16-16 16h-16c-8.848 0-16-7.168-16-16v-64h-64c-8.848 0-16-7.168-16-16v-16c0-8.848 7.152-16 16-16h64v-64c0-8.848 7.152-16 16-16h16c8.848 0 16 7.152 16 16v64h64c8.832 0 16 7.152 16 16v16z" />
<glyph unicode="&#xe667;" d="M256 16c-114.88 0-208 93.12-208 208s93.12 208 208 208 208-93.12 208-208-93.12-208-208-208zM256 384c-88.352 0-160-71.632-160-160 0-88.352 71.648-160 160-160 88.368 0 160 71.648 160 160 0 88.368-71.632 160-160 160zM319.808 208h-48v-48c0-8.848-7.168-16-16-16-8.848 0-16 7.152-16 16v48h-48c-8.848 0-16 7.168-16 16s7.152 16 16 16h48v48c0 8.848 7.152 16 16 16 8.832 0 16-7.152 16-16v-48h48c8.832 0 16-7.168 16-16s-7.168-16-16-16z" />
<glyph unicode="&#xe668;" d="M248 424c-114.88 0-208-93.12-208-208s93.12-208 208-208c114.88 0 208 93.12 208 208s-93.12 208-208 208zM352 210c0-8.848-7.168-16-16-16h-176c-8.848 0-16 7.152-16 16v16c0 8.832 7.152 16 16 16h176c8.832 0 16-7.168 16-16v-16z" />
<glyph unicode="&#xe669;" d="M256 432c-114.88 0-208-93.12-208-208s93.12-208 208-208 208 93.12 208 208-93.12 208-208 208zM256 64c-88.352 0-160 71.648-160 160 0 88.368 71.648 160 160 160 88.368 0 160-71.632 160-160 0-88.352-71.632-160-160-160zM315.808 240h-128c-8.848 0-16-7.168-16-16 0-8.848 7.152-16 16-16h128c8.848 0 16 7.152 16 16 0 8.832-7.152 16-16 16z" />
<glyph unicode="&#xe66a;" d="M248 424c-114.88 0-208-93.12-208-208s93.12-208 208-208 208 93.12 208 208-93.12 208-208 208zM248 98c-13.264 0-24 10.752-24 24s10.736 24 24 24c13.248 0 24-10.752 24-24s-10.752-24-24-24zM272 202c0-13.248-10.752-24-24-24-13.264 0-24 10.752-24 24v112c0 13.264 10.736 24 24 24 13.248 0 24-10.736 24-24v-112z" />
<glyph unicode="&#xe66b;" d="M248 432c-119.296 0-216-96.704-216-216s96.704-216 216-216 216 96.704 216 216-96.704 216-216 216zM248 48c-92.784 0-168 75.216-168 168s75.216 168 168 168 168-75.216 168-168-75.216-168-168-168zM248 320c-13.248 0-24-10.736-24-24v-80.992c0-13.248 10.752-24 24-24s24 10.752 24 24v80.992c0 13.264-10.752 24-24 24zM248 160c-13.248 0-24-10.752-24-24s10.752-24 24-24 24 10.752 24 24-10.752 24-24 24z" />
<glyph unicode="&#xe66c;" d="M415.92 174.912h-21.184c-3.44-12.464-8.368-24.288-14.688-35.248l19.584-19.568c12.528-12.528 12.528-32.848 0-45.376l-11.344-11.344c-12.528-12.528-32.848-12.528-45.376 0l-19.712 19.696c-10.928-6.224-22.704-11.072-35.104-14.448v-20.544c0-17.712-14.352-32.080-32.080-32.080h-16.032c-17.712 0-32.096 14.352-32.096 32.080v20.544c-12.384 3.376-24.176 8.24-35.104 14.448l-19.696-19.696c-12.512-12.528-32.832-12.528-45.36 0l-11.36 11.344c-12.528 12.528-12.528 32.848 0 45.376l19.584 19.568c-6.32 10.976-11.248 22.784-14.704 35.248h-21.168c-17.728 0-32.080 14.352-32.080 32.064v16.048c0 17.712 14.352 32.080 32.080 32.080h20.928c3.312 12.336 8.048 24.080 14.192 34.976l-18.832 18.816c-12.528 12.528-12.528 32.848 0 45.376l11.344 11.328c12.528 12.528 32.848 12.528 45.36 0l18.448-18.448c11.296 6.576 23.488 11.696 36.352 15.2v21.568c0.016 17.728 14.4 32.080 32.112 32.080h16.032c17.712 0 32.080-14.352 32.080-32.080v-21.552c12.896-3.52 25.072-8.64 36.352-15.216l18.448 18.448c12.528 12.528 32.848 12.528 45.376 0l11.344-11.328c12.528-12.528 12.528-32.848 0-45.376l-18.816-18.816c6.144-10.896 10.88-22.64 14.208-34.992h20.928c17.712 0 32.080-14.368 32.080-32.080v-16.048c-0.016-17.696-14.368-32.048-32.096-32.048zM248 302.72c-48.72 0-88.224-39.504-88.224-88.224s39.504-88.224 88.224-88.224 88.224 39.504 88.224 88.224-39.504 88.224-88.224 88.224zM248 175.408c-22.144 0-40.112 17.936-40.112 40.096 0 22.144 17.968 40.096 40.112 40.096s40.096-17.952 40.096-40.096c0-22.16-17.952-40.096-40.096-40.096z" />
<glyph unicode="&#xe66d;" d="M340.288 127.376l11.344 11.344c12.528 12.528 12.528 32.848 0 45.376l-19.584 19.568c6.304 10.976 11.248 22.784 14.688 35.248h21.184c17.712 0 32.080 14.368 32.080 32.080v16.032c0 17.712-14.352 32.080-32.080 32.080h-20.928c-3.328 12.336-8.048 24.080-14.192 34.976l18.832 18.816c12.528 12.528 12.528 32.848 0 45.376l-11.344 11.328c-12.528 12.528-32.848 12.528-45.376 0l-18.448-18.448c-11.28 6.576-23.472 11.696-36.352 15.216v21.552c-0.016 17.728-14.384 32.080-32.096 32.080h-16.032c-17.712 0-32.096-14.352-32.096-32.080v-21.552c-12.88-3.52-25.056-8.64-36.352-15.216l-18.464 18.464c-12.512 12.528-32.832 12.528-45.36 0l-11.344-11.328c-12.528-12.528-12.528-32.848 0-45.376l18.816-18.832c-6.128-10.896-10.88-22.64-14.192-34.992h-20.912c-17.728 0.016-32.080-14.352-32.080-32.080v-16.032c0-17.712 14.352-32.080 32.080-32.080h21.168c3.456-12.464 8.384-24.272 14.704-35.248l-19.584-19.568c-12.528-12.528-12.528-32.848 0-45.376l11.344-11.344c12.528-12.528 32.848-12.528 45.36 0l19.696 19.696c10.944-6.224 22.704-11.072 35.104-14.448v-20.544c0-17.696 14.368-32.080 32.096-32.080h16.032c17.712 0 32.080 14.368 32.080 32.080v20.544c12.4 3.376 24.192 8.24 35.104 14.448l19.696-19.696c12.56-12.512 32.864-12.512 45.408 0.016zM200 190.288c-48.72 0-88.224 39.488-88.224 88.224 0 48.72 39.504 88.224 88.224 88.224s88.224-39.504 88.224-88.224c0-48.736-39.504-88.224-88.224-88.224zM200 319.6c-22.16 0-40.112-17.952-40.112-40.096s17.952-40.096 40.112-40.096c22.144 0 40.096 17.952 40.096 40.096s-17.952 40.096-40.096 40.096zM400.992 18.208c-10.752 0-19.456-8.704-19.456-19.456 0-10.736 8.704-19.44 19.456-19.44 10.736 0 19.456 8.704 19.456 19.44 0 10.752-8.72 19.456-19.456 19.456zM482.432 17.968h-10.144c-1.616 5.984-3.92 11.68-6.896 16.976l9.12 9.12c6.080 6.080 6.080 15.936 0 22l-5.504 5.504c-6.080 6.080-15.92 6.080-22 0l-8.96-8.944c-5.472 3.184-11.392 5.664-17.632 7.376v10.432c0 8.592-6.976 15.568-15.568 15.568h-7.776c-8.592 0-15.568-6.976-15.568-15.568v-10.432c-6.256-1.712-12.16-4.192-17.632-7.376l-8.96 8.944c-6.080 6.080-15.936 6.080-22 0l-5.504-5.504c-6.080-6.064-6.080-15.92 0-22l9.12-9.12c-2.992-5.28-5.28-10.992-6.896-16.976h-10.144c-8.592 0-15.568-6.976-15.568-15.568v-7.776c0-8.592 6.976-15.568 15.568-15.568h10.272c1.664-6.032 4.064-11.76 7.12-17.088l-9.488-9.488c-6.080-6.080-6.080-15.92 0-22.016l5.504-5.504c6.064-6.064 15.92-6.064 22 0l9.552 9.568c5.312-3.008 11.008-5.376 17.024-7.008v-9.968c0-8.592 6.976-15.568 15.568-15.568h7.776c8.592 0 15.568 6.976 15.568 15.568v9.968c6.016 1.632 11.712 3.984 17.008 7.008l9.568-9.568c6.080-6.064 15.92-6.064 22 0l5.504 5.504c6.080 6.096 6.080 15.936 0 22.016l-9.488 9.488c3.040 5.328 5.456 11.056 7.12 17.088h10.272c8.592 0 15.568 6.976 15.568 15.568v7.776c0.064 8.608-6.912 15.568-15.504 15.568zM400.992-44.512c-23.632 0-42.784 19.152-42.784 42.8 0 23.632 19.152 42.784 42.784 42.784s42.784-19.152 42.784-42.784c0-23.648-19.152-42.8-42.784-42.8z" />
</font>
</defs>
</svg>
